  0
SECTION
  2
HEADER
  9
$ACADVER
  1
AC1012
  9
$DWGCODEPAGE
  3
ansi_1252
  9
$INSBASE
 10
0.0
 20
0.0
 30
0.0
  9
$EXTMIN
 10
0.0
 20
0.0
 30
0.0
  9
$EXTMAX
 10
420.0
 20
297.0
 30
0.0
  9
$LIMMIN
 10
0.0
 20
0.0
  9
$LIMMAX
 10
0.0
 20
0.0
  9
$ORTHOMODE
 70
         0
  9
$REGENMODE
 70
         1
  9
$FILLMODE
 70
         1
  9
$QTEXTMODE
 70
         0
  9
$MIRRTEXT
 70
         1
  9
$DRAGMODE
 70
         2
  9
$LTSCALE
 40
1.0
  9
$OSMODE
 70
         0
  9
$ATTMODE
 70
         1
  9
$TEXTSIZE
 40
3.5
  9
$TRACEWID
 40
0.05
  9
$TEXTSTYLE
  7
STANDARD
  9
$CLAYER
  8
0
  9
$CELTYPE
  6
CONTINUOUS
  9
$CECOLOR
 62
       256
  9
$CELTSCALE
 40
1.0
  9
$DELOBJ
 70
         1
  9
$DISPSILH
 70
         0
  9
$DIMSCALE
 40
1.0
  9
$DIMASZ
 40
0.0
  9
$DIMEXO
 40
1000.0
  9
$DIMDLI
 40
0.38
  9
$DIMRND
 40
0.0
  9
$DIMDLE
 40
0.0
  9
$DIMEXE
 40
0.18
  9
$DIMTP
 40
0.0
  9
$DIMTM
 40
0.0
  9
$DIMTXT
 40
0.18
  9
$DIMCEN
 40
0.09
  9
$DIMTSZ
 40
0.0
  9
$DIMTOL
 70
         0
  9
$DIMLIM
 70
         0
  9
$DIMTIH
 70
         1
  9
$DIMTOH
 70
         1
  9
$DIMSE1
 70
         0
  9
$DIMSE2
 70
         0
  9
$DIMTAD
 70
         0
  9
$DIMZIN
 70
         0
  9
$DIMBLK
  1

  9
$DIMASO
 70
         1
  9
$DIMSHO
 70
         1
  9
$DIMPOST
  1

  9
$DIMAPOST
  1

  9
$DIMALT
 70
         0
  9
$DIMALTD
 70
         2
  9
$DIMALTF
 40
0.0394
  9
$DIMLFAC
 40
1.0
  9
$DIMTOFL
 70
         0
  9
$DIMTVP
 40
0.0
  9
$DIMTIX
 70
         0
  9
$DIMSOXD
 70
         0
  9
$DIMSAH
 70
         0
  9
$DIMBLK1
  1

  9
$DIMBLK2
  1

  9
$DIMSTYLE
  2
STANDARD
  9
$DIMCLRD
 70
         0
  9
$DIMCLRE
 70
         0
  9
$DIMCLRT
 70
         0
  9
$DIMTFAC
 40
1.0
  9
$DIMGAP
 40
1000.0
  9
$DIMJUST
 70
         0
  9
$DIMSD1
 70
         0
  9
$DIMSD2
 70
         0
  9
$DIMTOLJ
 70
         1
  9
$DIMTZIN
 70
         0
  9
$DIMALTZ
 70
         0
  9
$DIMALTTZ
 70
         0
  9
$DIMFIT
 70
         3
  9
$DIMUPT
 70
         0
  9
$DIMUNIT
 70
         2
  9
$DIMDEC
 70
         4
  9
$DIMTDEC
 70
         4
  9
$DIMALTU
 70
         2
  9
$DIMALTTD
 70
         2
  9
$DIMTXSTY
  7
STANDARD
  9
$DIMAUNIT
 70
         0
  9
$LUNITS
 70
         2
  9
$LUPREC
 70
         4
  9
$SKETCHINC
 40
0.1
  9
$FILLETRAD
 40
0.0
  9
$AUNITS
 70
         0
  9
$AUPREC
 70
         0
  9
$MENU
  1
acad
  9
$ELEVATION
 40
0.0
  9
$PELEVATION
 40
0.0
  9
$THICKNESS
 40
0.0
  9
$LIMCHECK
 70
         0
  9
$BLIPMODE
 70
         1
  9
$CHAMFERA
 40
0.0
  9
$CHAMFERB
 40
0.0
  9
$CHAMFERC
 40
0.0
  9
$CHAMFERD
 40
0.0
  9
$SKPOLY
 70
         0
  9
$TDCREATE
 40
0.000000000
  9
$TDUPDATE
 40
0.000000000
  9
$TDINDWG
 40
0.0000000000
  9
$TDUSRTIMER
 40
0.0000000000
  9
$USRTIMER
 70
         1
  9
$ANGBASE
 50
0.0
  9
$ANGDIR
 70
         0
  9
$PDMODE
 70
         0
  9
$PDSIZE
 40
-1.0
  9
$PLINEWID
 40
0.0
  9
$COORDS
 70
         0
  9
$SPLFRAME
 70
         0
  9
$SPLINETYPE
 70
         6
  9
$SPLINESEGS
 70
         8
  9
$ATTDIA
 70
         0
  9
$ATTREQ
 70
         1
  9
$HANDLING
 70
         1
  9
$HANDSEED
  5
4C2
  9
$SURFTAB1
 70
         6
  9
$SURFTAB2
 70
         6
  9
$SURFTYPE
 70
         6
  9
$SURFU
 70
         6
  9
$SURFV
 70
         6
  9
$UCSNAME
  2

  9
$UCSORG
 10
0.0
 20
0.0
 30
0.0
  9
$UCSXDIR
 10
1.0
 20
0.0
 30
0.0
  9
$UCSYDIR
 10
0.0
 20
1.0
 30
0.0
  9
$PUCSNAME
  2

  9
$PUCSORG
 10
0.0
 20
0.0
 30
0.0
  9
$PUCSXDIR
 10
1.0
 20
0.0
 30
0.0
  9
$PUCSYDIR
 10
0.0
 20
1.0
 30
0.0
  9
$USERI1
 70
         0
  9
$USERI2
 70
         0
  9
$USERI3
 70
         0
  9
$USERI4
 70
         0
  9
$USERI5
 70
         0
  9
$USERR1
 40
0.0
  9
$USERR2
 40
0.0
  9
$USERR3
 40
0.0
  9
$USERR4
 40
0.0
  9
$USERR5
 40
0.0
  9
$WORLDVIEW
 70
         1
  9
$SHADEDGE
 70
         3
  9
$SHADEDIF
 70
        70
  9
$TILEMODE
 70
         1
  9
$MAXACTVP
 70
        16
  9
$PINSBASE
 10
0.0
 20
0.0
 30
0.0
  9
$PLIMCHECK
 70
         0
  9
$PEXTMIN
 10
1.0000000000E+20
 20
1.0000000000E+20
 30
1.0000000000E+20
  9
$PEXTMAX
 10
-1.0000000000E+20
 20
-1.0000000000E+20
 30
-1.0000000000E+20
  9
$PLIMMIN
 10
0.0
 20
0.0
  9
$PLIMMAX
 10
12.0
 20
9.0
  9
$UNITMODE
 70
         0
  9
$VISRETAIN
 70
         0
  9
$PLINEGEN
 70
         1
  9
$PSLTSCALE
 70
         1
  9
$TREEDEPTH
 70
      3020
  9
$PICKSTYLE
 70
         1
  9
$CMLSTYLE
  2
STANDARD
  9
$CMLJUST
 70
         0
  9
$CMLSCALE
 40
1.0
  9
$SAVEIMAGES
 70
         0
  0
ENDSEC
  0
SECTION
  2
CLASSES
  0
CLASS
  1
LWPOLYLINE
  2
AcDbPolyline
  3
"AutoCAD"
 90
    32768
280
         0
281
         1
  0
CLASS
  1
IMAGE
  2
AcDbRasterImage
  3
ISM
 90
    32895
280
         0
281
         1
  0
CLASS
  1
OLE2FRAME
  2
AcDbOle2Frame
  3
""
 90
    32768
280
         0
281
         1
  0
CLASS
  1
HATCH
  2
AcDbHatch
  3
"ACAD_SEDONA"
 90
    32768
280
         0
281
         1
  0
CLASS
  1
DICTIONARYVAR
  2
AcDbDictionaryVar
  3
"AutoCAD"
 90
    32768
280
         0
281
         0
  0
CLASS
  1
RASTERVARIABLES
  2
AcDbRasterVariables
  3
ISM
 90
    32768
280
         0
281
         0
  0
CLASS
  1
IMAGEDEF
  2
AcDbRasterImageDef
  3
ISM
 90
    32768
280
         0
281
         0
  0
CLASS
  1
IMAGEDEF_REACTOR
  2
AcDbRasterImageDefReactor
  3
ISM
 90
    32769
280
         0
281
         0
  0
CLASS
  1
IDBUFFER
  2
AcDbIdBuffer
  3
"Acad"
 90
    32768
280
         0
281
         0
  0
CLASS
  1
SPATIAL_FILTER
  2
AcDbSpatialFilter
  3
"Acad"
 90
    32768
280
         0
281
         0
  0
CLASS
  1
XRECORD
  2
AcDbXrecord
  3
"<Built In>"
 90
    32768
280
         0
281
         0
  0
CLASS
  1
SORTENTSTABLE
  2
AcDbSortentsTable
  3
"AutoCAD"
 90
    32768
280
         0
281
         0
  0
CLASS
  1
LAYER_INDEX
  2
AcDbLayerIndex
  3
"Acad"
 90
    32768
280
         0
281
         0
  0
CLASS
  1
SPATIAL_INDEX
  2
AcDbSpatialIndex
  3
"Acad"
 90
    32768
280
         0
281
         0
  0
CLASS
  1
OBJECT_PTR
  2
CAseDLPNTableRecord
  3
"ASE-LPNTableRecord"
 90
    32769
280
         0
281
         0
  0
CLASS
  1
LAYOUT
  2
AcDbLayout
  3
"AutoCAD 2000"
 90
    32768
280
         0
281
         0
  0
CLASS
  1
PLOTSETTINGS
  2
AcDbPlotSettings
  3
"AutoCAD 2000"
 90
    32768
280
         0
281
         0
  0
CLASS
  1
ACDBDICTIONARYWDFLT
  2
AcDbDictionaryWithDefault
  3
"AutoCAD 2000"
 90
    32768
280
         0
281
         0
  0
CLASS
  1
ACDBPLACEHOLDER
  2
AcDbPlaceHolder
  3
"AutoCAD 2000"
 90
    32768
280
         0
281
         0
  0
CLASS
  1
VBA_PROJECT
  2
AcDbVbaProject
  3
"acadvba"
 90
    32768
280
         0
281
         0
  0
CLASS
  1
WIPEOUT
  2
AcDbWipeout
  3
WipeOut|AutoCAD Express Tool|expresstools@autodesk.com
 90
    32895
280
         0
281
         1
  0
CLASS
  1
WIPEOUTVARIABLES
  2
AcDbWipeoutVariables
  3
WipeOut|AutoCAD Express Tool|expresstools@autodesk.com
 90
    32768
280
         0
281
         0
  0
CLASS
  1
RTEXT
  2
RText
  3
RText|AutoCAD Express Tool|expresstools@autodesk.com
 90
    32768
280
         0
281
         1
  0
CLASS
  1
ARCALIGNEDTEXT
  2
AcDbArcAlignedText
  3
ATEXT|AutoCAD Express Tool|expresstools@autodesk.com
 90
    32768
280
         0
281
         1
  0
ENDSEC
  0
SECTION
  2
TABLES
  0
TABLE
  2
VPORT
  5
7
100
AcDbSymbolTable
 70
         1
  0
VPORT
  5
15
100
AcDbSymbolTableRecord
100
AcDbViewportTableRecord
  2
*ACTIVE
 70
         0
 10
0.0
 20
0.0
 11
1.0
 21
1.0
 12
210.0
 22
148.5
 13
0.0
 23
0.0
 14
1.0
 24
1.0
 15
0.0
 25
0.0
 16
0.0
 26
0.0
 36
1.0
 17
0.0
 27
0.0
 37
0.0
 40
297.0
 41
0.7071428571
 42
50.0
 43
0.0
 44
0.0
 50
0.0
 51
0.0
 71
         0
 72
      2000
 73
         1
 74
         1
 75
         0
 76
         0
 77
         0
 78
         0
  0
ENDTAB
  0
TABLE
  2
LTYPE
  5
4
100
AcDbSymbolTable
 70
         8
  0
LTYPE
  5
11
100
AcDbSymbolTableRecord
100
AcDbLinetypeTableRecord
  2
BYBLOCK
 70
        64
  3

 72
        65
 73
         0
 40
0.0
  0
LTYPE
  5
12
100
AcDbSymbolTableRecord
100
AcDbLinetypeTableRecord
  2
BYLAYER
 70
        64
  3

 72
        65
 73
         0
 40
0.0
  0
LTYPE
  5
13
100
AcDbSymbolTableRecord
100
AcDbLinetypeTableRecord
  2
CONTINUOUS
 70
        64
  3
Solid line
 72
        65
 73
         0
 40
0.0
  0
LTYPE
  5
1D
100
AcDbSymbolTableRecord
100
AcDbLinetypeTableRecord
  2
HIDDEN
 70
        64
  3
Hidden __ __ __ __ __ __ __ __ __ __ __ __ __ __
 72
        65
 73
         2
 40
1.905
 49
1.27
 74
         0
 49
-0.635
 74
         0
  0
LTYPE
  5
1E
100
AcDbSymbolTableRecord
100
AcDbLinetypeTableRecord
  2
PHANTOM
 70
        64
  3
Phantom ______  __  __  ______  __  __  ______
 72
        65
 73
         6
 40
12.7
 49
6.35
 74
         0
 49
-1.27
 74
         0
 49
1.27
 74
         0
 49
-1.27
 74
         0
 49
1.27
 74
         0
 49
-1.27
 74
         0
  0
LTYPE
  5
1F
100
AcDbSymbolTableRecord
100
AcDbLinetypeTableRecord
  2
CENTER
 70
        64
  3
Center ____ _ ____ _ ____ _ ____ _ ____ _ ____
 72
        65
 73
         4
 40
10.16
 49
6.35
 74
         0
 49
-1.27
 74
         0
 49
1.27
 74
         0
 49
-1.27
 74
         0
  0
LTYPE
  5
20
100
AcDbSymbolTableRecord
100
AcDbLinetypeTableRecord
  2
CENTERX2
 70
        64
  3
Center (2x) ________  __  ________  __  _____
 72
        65
 73
         4
 40
20.32
 49
12.7
 74
         0
 49
-2.54
 74
         0
 49
2.54
 74
         0
 49
-2.54
 74
         0
  0
LTYPE
  5
21
100
AcDbSymbolTableRecord
100
AcDbLinetypeTableRecord
  2
DOT2
 70
        64
  3
Dot (.5x) ........................................
 72
        65
 73
         2
 40
0.635
 49
0.0
 74
         0
 49
-0.635
 74
         0
  0
ENDTAB
  0
TABLE
  2
LAYER
  5
2
100
AcDbSymbolTable
 70
         9
  0
LAYER
  5
14
100
AcDbSymbolTableRecord
100
AcDbLayerTableRecord
  2
0
 70
         0
 62
         7
  6
CONTINUOUS
  0
LAYER
  5
23
100
AcDbSymbolTableRecord
100
AcDbLayerTableRecord
  2
DEFPOINTS
 70
         0
 62
         7
  6
CONTINUOUS
  0
LAYER
  5
25
100
AcDbSymbolTableRecord
100
AcDbLayerTableRecord
  2
11
 70
         0
 62
       179
  6
CONTINUOUS
  0
LAYER
  5
26
100
AcDbSymbolTableRecord
100
AcDbLayerTableRecord
  2
6
 70
         0
 62
       179
  6
CONTINUOUS
  0
LAYER
  5
27
100
AcDbSymbolTableRecord
100
AcDbLayerTableRecord
  2
4
 70
         0
 62
       179
  6
CONTINUOUS
  0
LAYER
  5
28
100
AcDbSymbolTableRecord
100
AcDbLayerTableRecord
  2
1
 70
         0
 62
       179
  6
CONTINUOUS
  0
LAYER
  5
29
100
AcDbSymbolTableRecord
100
AcDbLayerTableRecord
  2
5
 70
         0
 62
       179
  6
CONTINUOUS
  0
LAYER
  5
2A
100
AcDbSymbolTableRecord
100
AcDbLayerTableRecord
  2
22
 70
         0
 62
       179
  6
CONTINUOUS
  0
LAYER
  5
2B
100
AcDbSymbolTableRecord
100
AcDbLayerTableRecord
  2
2
 70
         0
 62
       179
  6
CONTINUOUS
  0
ENDTAB
  0
TABLE
  2
STYLE
  5
3
100
AcDbSymbolTable
 70
         7
  0
STYLE
  5
17
100
AcDbSymbolTableRecord
100
AcDbTextStyleTableRecord
  2
STANDARD
 70
         0
 40
0.0
 41
1.0
 50
0.0
 71
         0
 42
0.0
  3
txt
  4

  0
STYLE
  5
3B
100
AcDbSymbolTableRecord
100
AcDbTextStyleTableRecord
  2
SLDTEXTSTYLE0
 70
         0
 40
0.0
 41
0.4828125536
 50
0.0
 71
         0
 42
0.0
  3
TXT
  4

  0
STYLE
  5
79
100
AcDbSymbolTableRecord
100
AcDbTextStyleTableRecord
  2
SLDTEXTSTYLE1
 70
         0
 40
0.0
 41
0.4750000714
 50
0.0
 71
         0
 42
0.0
  3
TXT
  4

  0
STYLE
  5
9A
100
AcDbSymbolTableRecord
100
AcDbTextStyleTableRecord
  2
SLDTEXTSTYLE2
 70
         0
 40
0.0
 41
0.459375
 50
0.0
 71
         0
 42
0.0
  3
TXT
  4

  0
STYLE
  5
141
100
AcDbSymbolTableRecord
100
AcDbTextStyleTableRecord
  2
SLDTEXTSTYLE3
 70
         0
 40
0.0
 41
0.4828125
 50
0.0
 71
         0
 42
0.0
  3
TXT
  4

  0
STYLE
  5
2F9
100
AcDbSymbolTableRecord
100
AcDbTextStyleTableRecord
  2
SLDTEXTSTYLE4
 70
         0
 40
0.0
 41
0.75
 50
0.0
 71
         0
 42
0.0
  3
TXT
  4

  0
STYLE
  5
31B
100
AcDbSymbolTableRecord
100
AcDbTextStyleTableRecord
  2
SLDTEXTSTYLE5
 70
         0
 40
0.0
 41
0.50625
 50
0.0
 71
         0
 42
0.0
  3
TXT
  4

  0
ENDTAB
  0
TABLE
  2
VIEW
  5
5
100
AcDbSymbolTable
 70
         0
  0
ENDTAB
  0
TABLE
  2
UCS
  5
6
100
AcDbSymbolTable
 70
         0
  0
ENDTAB
  0
TABLE
  2
APPID
  5
8
100
AcDbSymbolTable
 70
         1
  0
APPID
  5
16
100
AcDbSymbolTableRecord
100
AcDbRegAppTableRecord
  2
ACAD
 70
         0
  0
ENDTAB
  0
TABLE
  2
DIMSTYLE
  5
9
100
AcDbSymbolTable
 70
         3
  0
DIMSTYLE
105
18
100
AcDbSymbolTableRecord
100
AcDbDimStyleTableRecord
  2
STANDARD
 70
         0
  3

  4

  5

  6

  7

 40
1.0
 41
0.18
 42
0.0625
 43
0.38
 44
0.18
 45
0.0
 46
0.0
 47
0.0
 48
0.0
 71
         0
 72
         0
 73
         1
 74
         1
 75
         0
 76
         0
 77
         0
 78
         0
140
0.18
141
0.09
142
0.0
143
25.4
144
1.0
145
0.0
146
1.0
147
0.09
170
         0
171
         2
172
         0
173
         0
174
         0
175
         0
176
         0
177
         0
178
         0
270
         2
271
         4
272
         4
273
         2
274
         2
275
         0
280
         0
281
         0
282
         0
283
         1
284
         0
285
         0
286
         0
287
         3
288
         0
340
17
  0
DIMSTYLE
105
31C
100
AcDbSymbolTableRecord
100
AcDbDimStyleTableRecord
  2
SLDDIMSTYLE0
 70
         0
  3

  4

  5

  6
_NONE
  7
_NONE
 40
1.0
 41
2.5
 42
0.0625
 43
0.38
 44
1.0
 45
0.0
 46
0.0
 47
0.0
 48
0.0
 71
         0
 72
         0
 73
         0
 74
         0
 75
         0
 76
         0
 77
         2
 78
        12
140
3.5
141
0.09
142
0.0
143
25.4
144
1.0
145
0.0
146
1.0
147
0.875
170
         0
171
         2
172
         0
173
         1
174
         0
175
         0
176
       179
177
       179
178
       179
270
         2
271
         4
272
         4
273
         2
274
         2
275
         0
280
         0
281
         0
282
         0
283
         1
284
        12
285
         0
286
         0
287
         3
288
         0
340
31B
  0
DIMSTYLE
105
39E
100
AcDbSymbolTableRecord
100
AcDbDimStyleTableRecord
  2
SLDDIMSTYLE1
 70
         0
  3

  4

  5

  6
_NONE
  7
_NONE
 40
1.0
 41
2.5
 42
0.0625
 43
0.38
 44
1.0
 45
0.0
 46
0.0
 47
0.0
 48
0.0
 71
         0
 72
         0
 73
         0
 74
         0
 75
         0
 76
         0
 77
         2
 78
        12
140
3.5
141
0.09
142
0.0
143
25.4
144
1.0
145
0.0
146
1.0
147
0.875
170
         0
171
         2
172
         0
173
         1
174
         0
175
         0
176
       179
177
       179
178
       179
270
         2
271
         4
272
         4
273
         2
274
         2
275
         0
280
         0
281
         0
282
         0
283
         1
284
        12
285
         0
286
         0
287
         3
288
         0
340
31B
  0
ENDTAB
  0
TABLE
  2
BLOCK_RECORD
  5
1
100
AcDbSymbolTable
 70
        32
  0
BLOCK_RECORD
  5
A
100
AcDbSymbolTableRecord
100
AcDbBlockTableRecord
  2
*MODEL_SPACE
  0
BLOCK_RECORD
  5
B
100
AcDbSymbolTableRecord
100
AcDbBlockTableRecord
  2
*PAPER_SPACE
  0
BLOCK_RECORD
  5
2D
100
AcDbSymbolTableRecord
100
AcDbBlockTableRecord
  2
MEDCLUMP_SET_1_
  0
BLOCK_RECORD
  5
39
100
AcDbSymbolTableRecord
100
AcDbBlockTableRecord
  2
MEDCLUMP_DMS_29_
  0
BLOCK_RECORD
  5
5C
100
AcDbSymbolTableRecord
100
AcDbBlockTableRecord
  2
MEDCLUMP_CRH_43_
  0
BLOCK_RECORD
  5
67
100
AcDbSymbolTableRecord
100
AcDbBlockTableRecord
  2
MEDFUNV_6
  0
BLOCK_RECORD
  5
77
100
AcDbSymbolTableRecord
100
AcDbBlockTableRecord
  2
MEDCLUMP_DMS_92_
  0
BLOCK_RECORD
  5
98
100
AcDbSymbolTableRecord
100
AcDbBlockTableRecord
  2
MEDCLUMP_DMS_112_
  0
BLOCK_RECORD
  5
B9
100
AcDbSymbolTableRecord
100
AcDbBlockTableRecord
  2
MEDCLUMP_DMS_118_
  0
BLOCK_RECORD
  5
D9
100
AcDbSymbolTableRecord
100
AcDbBlockTableRecord
  2
MEDCLUMP_SET_138_
  0
BLOCK_RECORD
  5
133
100
AcDbSymbolTableRecord
100
AcDbBlockTableRecord
  2
MEDCLUMP_DMS_170_
  0
BLOCK_RECORD
  5
137
100
AcDbSymbolTableRecord
100
AcDbBlockTableRecord
  2
MEDCLUMP_SET_185_
  0
BLOCK_RECORD
  5
13F
100
AcDbSymbolTableRecord
100
AcDbBlockTableRecord
  2
MEDCLUMP_DMS_195_
  0
BLOCK_RECORD
  5
161
100
AcDbSymbolTableRecord
100
AcDbBlockTableRecord
  2
MEDCLUMP_CRH_235_
  0
BLOCK_RECORD
  5
170
100
AcDbSymbolTableRecord
100
AcDbBlockTableRecord
  2
MEDCLUMP_CRH_248_
  0
BLOCK_RECORD
  5
17E
100
AcDbSymbolTableRecord
100
AcDbBlockTableRecord
  2
MEDCLUMP_SET_261_
  0
BLOCK_RECORD
  5
19E
100
AcDbSymbolTableRecord
100
AcDbBlockTableRecord
  2
MEDCLUMP_CRH_277_
  0
BLOCK_RECORD
  5
1AB
100
AcDbSymbolTableRecord
100
AcDbBlockTableRecord
  2
MEDCLUMP_CRH_285_
  0
BLOCK_RECORD
  5
1B7
100
AcDbSymbolTableRecord
100
AcDbBlockTableRecord
  2
MEDCLUMP_SET_299_
  0
BLOCK_RECORD
  5
1E2
100
AcDbSymbolTableRecord
100
AcDbBlockTableRecord
  2
MEDCLUMP_SET_308_
  0
BLOCK_RECORD
  5
242
100
AcDbSymbolTableRecord
100
AcDbBlockTableRecord
  2
MEDCLUMP_CRH_346_
  0
BLOCK_RECORD
  5
255
100
AcDbSymbolTableRecord
100
AcDbBlockTableRecord
  2
MEDCLUMP_CRH_364_
  0
BLOCK_RECORD
  5
266
100
AcDbSymbolTableRecord
100
AcDbBlockTableRecord
  2
MEDCLUMP_SET_379_
  0
BLOCK_RECORD
  5
2F7
100
AcDbSymbolTableRecord
100
AcDbBlockTableRecord
  2
*D21
  0
BLOCK_RECORD
  5
31D
100
AcDbSymbolTableRecord
100
AcDbBlockTableRecord
  2
_NONE
  0
BLOCK_RECORD
  5
324
100
AcDbSymbolTableRecord
100
AcDbBlockTableRecord
  2
*D23
  0
BLOCK_RECORD
  5
34A
100
AcDbSymbolTableRecord
100
AcDbBlockTableRecord
  2
*D24
  0
BLOCK_RECORD
  5
36E
100
AcDbSymbolTableRecord
100
AcDbBlockTableRecord
  2
*D25
  0
BLOCK_RECORD
  5
394
100
AcDbSymbolTableRecord
100
AcDbBlockTableRecord
  2
*D26
  0
BLOCK_RECORD
  5
3A3
100
AcDbSymbolTableRecord
100
AcDbBlockTableRecord
  2
*D27
  0
BLOCK_RECORD
  5
3CA
100
AcDbSymbolTableRecord
100
AcDbBlockTableRecord
  2
*D28
  0
BLOCK_RECORD
  5
3F1
100
AcDbSymbolTableRecord
100
AcDbBlockTableRecord
  2
*D29
  0
BLOCK_RECORD
  5
417
100
AcDbSymbolTableRecord
100
AcDbBlockTableRecord
  2
*D30
  0
BLOCK_RECORD
  5
423
100
AcDbSymbolTableRecord
100
AcDbBlockTableRecord
  2
*D31
  0
ENDTAB
  0
ENDSEC
  0
SECTION
  2
BLOCKS
  0
BLOCK
  5
D
100
AcDbEntity
  8
0
100
AcDbBlockBegin
  2
*MODEL_SPACE
 70
         0
 10
0.0
 20
0.0
 30
0.0
  3
*MODEL_SPACE
  1

  0
ENDBLK
  5
E
100
AcDbEntity
  8
0
100
AcDbBlockEnd
  0
BLOCK
  5
F
100
AcDbEntity
 67
         1
  8
0
100
AcDbBlockBegin
  2
*PAPER_SPACE
 70
         0
 10
0.0
 20
0.0
 30
0.0
  3
*PAPER_SPACE
  1

  0
ENDBLK
  5
10
100
AcDbEntity
 67
         1
  8
0
100
AcDbBlockEnd
  0
BLOCK
  5
2E
100
AcDbEntity
  8
0
 62
         0
100
AcDbBlockBegin
  2
MEDCLUMP_SET_1_
 70
         0
 10
0.0
 20
0.0
 30
0.0
  3
MEDCLUMP_SET_1_
  1

  0
LINE
  5
2F
100
AcDbEntity
  8
11
  6
CONTINUOUS
 62
         3
100
AcDbLine
 10
207.360794
 20
7.560987
 30
0.0
 11
140.394241
 21
7.560987
 31
0.0
  0
LINE
  5
30
100
AcDbEntity
  8
11
  6
CONTINUOUS
 62
         3
100
AcDbLine
 10
140.394241
 20
7.560987
 30
0.0
 11
140.394241
 21
47.560986
 31
0.0
  0
LINE
  5
31
100
AcDbEntity
  8
11
  6
CONTINUOUS
 62
         3
100
AcDbLine
 10
140.394241
 20
47.560986
 30
0.0
 11
207.360794
 21
47.560986
 31
0.0
  0
LINE
  5
32
100
AcDbEntity
  8
11
  6
CONTINUOUS
 62
         3
100
AcDbLine
 10
207.360794
 20
47.560986
 30
0.0
 11
207.360794
 21
7.560987
 31
0.0
  0
LINE
  5
33
100
AcDbEntity
  8
11
  6
CONTINUOUS
 62
         3
100
AcDbLine
 10
140.394241
 20
15.560987
 30
0.0
 11
207.360794
 21
15.560987
 31
0.0
  0
LINE
  5
34
100
AcDbEntity
  8
11
  6
CONTINUOUS
 62
       179
100
AcDbLine
 10
140.394241
 20
23.560987
 30
0.0
 11
207.360794
 21
23.560987
 31
0.0
  0
LINE
  5
35
100
AcDbEntity
  8
11
  6
CONTINUOUS
 62
       179
100
AcDbLine
 10
140.394241
 20
31.560987
 30
0.0
 11
207.360794
 21
31.560987
 31
0.0
  0
LINE
  5
36
100
AcDbEntity
  8
11
  6
CONTINUOUS
 62
       179
100
AcDbLine
 10
140.394241
 20
39.560986
 30
0.0
 11
207.360794
 21
39.560986
 31
0.0
  0
LINE
  5
37
100
AcDbEntity
  8
11
  6
CONTINUOUS
 62
       179
100
AcDbLine
 10
181.826782
 20
7.560987
 30
0.0
 11
181.826782
 21
47.560986
 31
0.0
  0
ENDBLK
  5
38
100
AcDbEntity
  8
0
100
AcDbBlockEnd
  0
BLOCK
  5
3A
100
AcDbEntity
  8
0
 62
         0
100
AcDbBlockBegin
  2
MEDCLUMP_DMS_29_
 70
         2
 10
0.0
 20
0.0
 30
0.0
  3
MEDCLUMP_DMS_29_
  1

  0
MTEXT
  5
3C
100
AcDbEntity
  8
4
100
AcDbMText
 10
223.245822
 20
210.0281477496
 30
0.0
 40
3.5
 41
0.0
 71
         1
 72
         1
  1
13.8
  7
SLDTEXTSTYLE0
  0
LINE
  5
3D
100
AcDbEntity
  8
4
  6
CONTINUOUS
 62
       179
100
AcDbLine
 10
253.87381
 20
170.456863
 30
0.0
 11
253.87381
 21
186.401428
 31
0.0
  0
LINE
  5
3E
100
AcDbEntity
  8
4
  6
CONTINUOUS
 62
       179
100
AcDbLine
 10
253.87381
 20
189.714905
 30
0.0
 11
253.87381
 21
196.219162
 31
0.0
  0
LINE
  5
3F
100
AcDbEntity
  8
4
  6
CONTINUOUS
 62
       179
100
AcDbLine
 10
253.87381
 20
198.919037
 30
0.0
 11
253.87381
 21
206.570007
 31
0.0
  0
LINE
  5
40
100
AcDbEntity
  8
4
  6
CONTINUOUS
 62
       179
100
AcDbLine
 10
236.573819
 20
206.153341
 30
0.0
 11
240.073822
 21
205.570007
 31
0.0
  0
LINE
  5
41
100
AcDbEntity
  8
4
  6
CONTINUOUS
 62
       179
100
AcDbLine
 10
240.073822
 20
205.570007
 30
0.0
 11
236.573819
 21
204.986673
 31
0.0
  0
LINE
  5
42
100
AcDbEntity
  8
4
  6
CONTINUOUS
 62
       179
100
AcDbLine
 10
236.573819
 20
204.986673
 30
0.0
 11
236.573819
 21
206.153341
 31
0.0
  0
LINE
  5
43
100
AcDbEntity
  8
4
  6
CONTINUOUS
 62
       179
100
AcDbLine
 10
236.573819
 20
206.056118
 30
0.0
 11
239.490488
 21
205.570007
 31
0.0
  0
LINE
  5
44
100
AcDbEntity
  8
4
  6
CONTINUOUS
 62
       179
100
AcDbLine
 10
239.490488
 20
205.570007
 30
0.0
 11
236.573819
 21
205.083896
 31
0.0
  0
LINE
  5
45
100
AcDbEntity
  8
4
  6
CONTINUOUS
 62
       179
100
AcDbLine
 10
236.573819
 20
205.958896
 30
0.0
 11
238.907154
 21
205.570007
 31
0.0
  0
LINE
  5
46
100
AcDbEntity
  8
4
  6
CONTINUOUS
 62
       179
100
AcDbLine
 10
238.907154
 20
205.570007
 30
0.0
 11
236.573819
 21
205.181118
 31
0.0
  0
LINE
  5
47
100
AcDbEntity
  8
4
  6
CONTINUOUS
 62
       179
100
AcDbLine
 10
236.573819
 20
205.861674
 30
0.0
 11
238.323821
 21
205.570007
 31
0.0
  0
LINE
  5
48
100
AcDbEntity
  8
4
  6
CONTINUOUS
 62
       179
100
AcDbLine
 10
238.323821
 20
205.570007
 30
0.0
 11
236.573819
 21
205.27834
 31
0.0
  0
LINE
  5
49
100
AcDbEntity
  8
4
  6
CONTINUOUS
 62
       179
100
AcDbLine
 10
236.573819
 20
205.764452
 30
0.0
 11
237.740487
 21
205.570007
 31
0.0
  0
LINE
  5
4A
100
AcDbEntity
  8
4
  6
CONTINUOUS
 62
       179
100
AcDbLine
 10
237.740487
 20
205.570007
 30
0.0
 11
236.573819
 21
205.375562
 31
0.0
  0
LINE
  5
4B
100
AcDbEntity
  8
4
  6
CONTINUOUS
 62
       179
100
AcDbLine
 10
236.573819
 20
205.667229
 30
0.0
 11
237.157153
 21
205.570007
 31
0.0
  0
LINE
  5
4C
100
AcDbEntity
  8
4
  6
CONTINUOUS
 62
       179
100
AcDbLine
 10
237.157153
 20
205.570007
 30
0.0
 11
236.573819
 21
205.472785
 31
0.0
  0
LINE
  5
4D
100
AcDbEntity
  8
4
  6
CONTINUOUS
 62
       179
100
AcDbLine
 10
257.373813
 20
206.153341
 30
0.0
 11
253.87381
 21
205.570007
 31
0.0
  0
LINE
  5
4E
100
AcDbEntity
  8
4
  6
CONTINUOUS
 62
       179
100
AcDbLine
 10
253.87381
 20
205.570007
 30
0.0
 11
257.373813
 21
204.986673
 31
0.0
  0
LINE
  5
4F
100
AcDbEntity
  8
4
  6
CONTINUOUS
 62
       179
100
AcDbLine
 10
257.373813
 20
204.986673
 30
0.0
 11
257.373813
 21
206.153341
 31
0.0
  0
LINE
  5
50
100
AcDbEntity
  8
4
  6
CONTINUOUS
 62
       179
100
AcDbLine
 10
257.373813
 20
206.056118
 30
0.0
 11
254.457144
 21
205.570007
 31
0.0
  0
LINE
  5
51
100
AcDbEntity
  8
4
  6
CONTINUOUS
 62
       179
100
AcDbLine
 10
254.457144
 20
205.570007
 30
0.0
 11
257.373813
 21
205.083896
 31
0.0
  0
LINE
  5
52
100
AcDbEntity
  8
4
  6
CONTINUOUS
 62
       179
100
AcDbLine
 10
257.373813
 20
205.958896
 30
0.0
 11
255.040478
 21
205.570007
 31
0.0
  0
LINE
  5
53
100
AcDbEntity
  8
4
  6
CONTINUOUS
 62
       179
100
AcDbLine
 10
255.040478
 20
205.570007
 30
0.0
 11
257.373813
 21
205.181118
 31
0.0
  0
LINE
  5
54
100
AcDbEntity
  8
4
  6
CONTINUOUS
 62
       179
100
AcDbLine
 10
257.373813
 20
205.861674
 30
0.0
 11
255.623811
 21
205.570007
 31
0.0
  0
LINE
  5
55
100
AcDbEntity
  8
4
  6
CONTINUOUS
 62
       179
100
AcDbLine
 10
255.623811
 20
205.570007
 30
0.0
 11
257.373813
 21
205.27834
 31
0.0
  0
LINE
  5
56
100
AcDbEntity
  8
4
  6
CONTINUOUS
 62
       179
100
AcDbLine
 10
257.373813
 20
205.764452
 30
0.0
 11
256.207145
 21
205.570007
 31
0.0
  0
LINE
  5
57
100
AcDbEntity
  8
4
  6
CONTINUOUS
 62
       179
100
AcDbLine
 10
256.207145
 20
205.570007
 30
0.0
 11
257.373813
 21
205.375562
 31
0.0
  0
LINE
  5
58
100
AcDbEntity
  8
4
  6
CONTINUOUS
 62
       179
100
AcDbLine
 10
257.373813
 20
205.667229
 30
0.0
 11
256.790479
 21
205.570007
 31
0.0
  0
LINE
  5
59
100
AcDbEntity
  8
4
  6
CONTINUOUS
 62
       179
100
AcDbLine
 10
256.790479
 20
205.570007
 30
0.0
 11
257.373813
 21
205.472785
 31
0.0
  0
LINE
  5
5A
100
AcDbEntity
  8
4
  6
CONTINUOUS
 62
       179
100
AcDbLine
 10
222.080322
 20
205.570007
 30
0.0
 11
260.87381
 21
205.570007
 31
0.0
  0
ENDBLK
  5
5B
100
AcDbEntity
  8
0
100
AcDbBlockEnd
  0
BLOCK
  5
5D
100
AcDbEntity
  8
0
 62
         0
100
AcDbBlockBegin
  2
MEDCLUMP_CRH_43_
 70
         0
 10
0.0
 20
0.0
 30
0.0
  3
MEDCLUMP_CRH_43_
  1

  0
LINE
  5
5E
100
AcDbEntity
  8
5
  6
CONTINUOUS
 62
       179
100
AcDbLine
 10
256.356873
 20
164.859192
 30
0.0
 11
257.084473
 21
165.586777
 31
0.0
  0
LINE
  5
5F
100
AcDbEntity
  8
5
  6
CONTINUOUS
 62
       179
100
AcDbLine
 10
254.381897
 20
164.298416
 30
0.0
 11
256.629425
 21
166.545975
 31
0.0
  0
LINE
  5
60
100
AcDbEntity
  8
5
  6
CONTINUOUS
 62
       179
100
AcDbLine
 10
256.87381
 20
166.790344
 30
0.0
 11
258.12204
 21
168.038574
 31
0.0
  0
LINE
  5
61
100
AcDbEntity
  8
5
  6
CONTINUOUS
 62
       179
100
AcDbLine
 10
253.040192
 20
164.370941
 30
0.0
 11
253.715607
 21
165.046356
 31
0.0
  0
LINE
  5
62
100
AcDbEntity
  8
5
  6
CONTINUOUS
 62
       179
100
AcDbLine
 10
251.996246
 20
164.741196
 30
0.0
 11
252.819031
 21
165.563995
 31
0.0
  0
LINE
  5
63
100
AcDbEntity
  8
5
  6
CONTINUOUS
 62
       179
100
AcDbLine
 10
250.98735
 20
165.14653
 30
0.0
 11
251.922455
 21
166.081619
 31
0.0
  0
LINE
  5
64
100
AcDbEntity
  8
5
  6
CONTINUOUS
 62
       179
100
AcDbLine
 10
250.347214
 20
165.920593
 30
0.0
 11
251.025879
 21
166.599258
 31
0.0
  0
LINE
  5
65
100
AcDbEntity
  8
5
  6
CONTINUOUS
 62
       179
100
AcDbLine
 10
249.986801
 20
166.974396
 30
0.0
 11
250.87381
 21
167.861404
 31
0.0
  0
ENDBLK
  5
66
100
AcDbEntity
  8
0
100
AcDbBlockEnd
  0
BLOCK
  5
68
100
AcDbEntity
  8
0
 62
         0
100
AcDbBlockBegin
  2
MEDFUNV_6
 70
         0
 10
0.0
 20
0.0
 30
0.0
  3
MEDFUNV_6
  1

  0
LINE
  5
69
100
AcDbEntity
  8
4
  6
CONTINUOUS
 62
       179
100
AcDbLine
 10
3.500003
 20
0.583334
 30
0.0
 11
0.0
 21
0.0
 31
0.0
  0
LINE
  5
6A
100
AcDbEntity
  8
4
  6
CONTINUOUS
 62
       179
100
AcDbLine
 10
0.0
 20
0.0
 30
0.0
 11
3.500003
 21
-0.583334
 31
0.0
  0
LINE
  5
6B
100
AcDbEntity
  8
4
  6
CONTINUOUS
 62
       179
100
AcDbLine
 10
3.500003
 20
-0.583334
 30
0.0
 11
3.500003
 21
0.583334
 31
0.0
  0
LINE
  5
6C
100
AcDbEntity
  8
4
  6
CONTINUOUS
 62
       179
100
AcDbLine
 10
3.500003
 20
0.486111
 30
0.0
 11
0.583334
 21
0.0
 31
0.0
  0
LINE
  5
6D
100
AcDbEntity
  8
4
  6
CONTINUOUS
 62
       179
100
AcDbLine
 10
0.583334
 20
0.0
 30
0.0
 11
3.500003
 21
-0.486111
 31
0.0
  0
LINE
  5
6E
100
AcDbEntity
  8
4
  6
CONTINUOUS
 62
       179
100
AcDbLine
 10
3.500003
 20
0.388889
 30
0.0
 11
1.166668
 21
0.0
 31
0.0
  0
LINE
  5
6F
100
AcDbEntity
  8
4
  6
CONTINUOUS
 62
       179
100
AcDbLine
 10
1.166668
 20
0.0
 30
0.0
 11
3.500003
 21
-0.388889
 31
0.0
  0
LINE
  5
70
100
AcDbEntity
  8
4
  6
CONTINUOUS
 62
       179
100
AcDbLine
 10
3.500003
 20
0.291667
 30
0.0
 11
1.750001
 21
0.0
 31
0.0
  0
LINE
  5
71
100
AcDbEntity
  8
4
  6
CONTINUOUS
 62
       179
100
AcDbLine
 10
1.750001
 20
0.0
 30
0.0
 11
3.500003
 21
-0.291667
 31
0.0
  0
LINE
  5
72
100
AcDbEntity
  8
4
  6
CONTINUOUS
 62
       179
100
AcDbLine
 10
3.500003
 20
0.194445
 30
0.0
 11
2.333335
 21
0.0
 31
0.0
  0
LINE
  5
73
100
AcDbEntity
  8
4
  6
CONTINUOUS
 62
       179
100
AcDbLine
 10
2.333335
 20
0.0
 30
0.0
 11
3.500003
 21
-0.194445
 31
0.0
  0
LINE
  5
74
100
AcDbEntity
  8
4
  6
CONTINUOUS
 62
       179
100
AcDbLine
 10
3.500003
 20
0.097222
 30
0.0
 11
2.916669
 21
0.0
 31
0.0
  0
LINE
  5
75
100
AcDbEntity
  8
4
  6
CONTINUOUS
 62
       179
100
AcDbLine
 10
2.916669
 20
0.0
 30
0.0
 11
3.500003
 21
-0.097222
 31
0.0
  0
ENDBLK
  5
76
100
AcDbEntity
  8
0
100
AcDbBlockEnd
  0
BLOCK
  5
78
100
AcDbEntity
  8
0
 62
         0
100
AcDbBlockBegin
  2
MEDCLUMP_DMS_92_
 70
         2
 10
0.0
 20
0.0
 30
0.0
  3
MEDCLUMP_DMS_92_
  1

  0
MTEXT
  5
7A
100
AcDbEntity
  8
4
100
AcDbMText
 10
248.608325
 20
238.8848677496
 30
0.0
 40
3.5
 41
0.0
 71
         1
 72
         1
  1
 5 
  7
SLDTEXTSTYLE1
  0
LINE
  5
7B
100
AcDbEntity
  8
4
  6
CONTINUOUS
 62
       179
100
AcDbLine
 10
259.573819
 20
235.010061
 30
0.0
 11
263.073822
 21
234.426727
 31
0.0
  0
LINE
  5
7C
100
AcDbEntity
  8
4
  6
CONTINUOUS
 62
       179
100
AcDbLine
 10
263.073822
 20
234.426727
 30
0.0
 11
259.573819
 21
233.843393
 31
0.0
  0
LINE
  5
7D
100
AcDbEntity
  8
4
  6
CONTINUOUS
 62
       179
100
AcDbLine
 10
259.573819
 20
233.843393
 30
0.0
 11
259.573819
 21
235.010061
 31
0.0
  0
LINE
  5
7E
100
AcDbEntity
  8
4
  6
CONTINUOUS
 62
       179
100
AcDbLine
 10
259.573819
 20
234.912838
 30
0.0
 11
262.490488
 21
234.426727
 31
0.0
  0
LINE
  5
7F
100
AcDbEntity
  8
4
  6
CONTINUOUS
 62
       179
100
AcDbLine
 10
262.490488
 20
234.426727
 30
0.0
 11
259.573819
 21
233.940616
 31
0.0
  0
LINE
  5
80
100
AcDbEntity
  8
4
  6
CONTINUOUS
 62
       179
100
AcDbLine
 10
259.573819
 20
234.815616
 30
0.0
 11
261.907154
 21
234.426727
 31
0.0
  0
LINE
  5
81
100
AcDbEntity
  8
4
  6
CONTINUOUS
 62
       179
100
AcDbLine
 10
261.907154
 20
234.426727
 30
0.0
 11
259.573819
 21
234.037838
 31
0.0
  0
LINE
  5
82
100
AcDbEntity
  8
4
  6
CONTINUOUS
 62
       179
100
AcDbLine
 10
259.573819
 20
234.718394
 30
0.0
 11
261.323821
 21
234.426727
 31
0.0
  0
LINE
  5
83
100
AcDbEntity
  8
4
  6
CONTINUOUS
 62
       179
100
AcDbLine
 10
261.323821
 20
234.426727
 30
0.0
 11
259.573819
 21
234.13506
 31
0.0
  0
LINE
  5
84
100
AcDbEntity
  8
4
  6
CONTINUOUS
 62
       179
100
AcDbLine
 10
259.573819
 20
234.621172
 30
0.0
 11
260.740487
 21
234.426727
 31
0.0
  0
LINE
  5
85
100
AcDbEntity
  8
4
  6
CONTINUOUS
 62
       179
100
AcDbLine
 10
260.740487
 20
234.426727
 30
0.0
 11
259.573819
 21
234.232282
 31
0.0
  0
LINE
  5
86
100
AcDbEntity
  8
4
  6
CONTINUOUS
 62
       179
100
AcDbLine
 10
259.573819
 20
234.523949
 30
0.0
 11
260.157153
 21
234.426727
 31
0.0
  0
LINE
  5
87
100
AcDbEntity
  8
4
  6
CONTINUOUS
 62
       179
100
AcDbLine
 10
260.157153
 20
234.426727
 30
0.0
 11
259.573819
 21
234.329505
 31
0.0
  0
LINE
  5
88
100
AcDbEntity
  8
4
  6
CONTINUOUS
 62
       179
100
AcDbLine
 10
271.573825
 20
235.010061
 30
0.0
 11
268.073822
 21
234.426727
 31
0.0
  0
LINE
  5
89
100
AcDbEntity
  8
4
  6
CONTINUOUS
 62
       179
100
AcDbLine
 10
268.073822
 20
234.426727
 30
0.0
 11
271.573825
 21
233.843393
 31
0.0
  0
LINE
  5
8A
100
AcDbEntity
  8
4
  6
CONTINUOUS
 62
       179
100
AcDbLine
 10
271.573825
 20
233.843393
 30
0.0
 11
271.573825
 21
235.010061
 31
0.0
  0
LINE
  5
8B
100
AcDbEntity
  8
4
  6
CONTINUOUS
 62
       179
100
AcDbLine
 10
271.573825
 20
234.912838
 30
0.0
 11
268.657156
 21
234.426727
 31
0.0
  0
LINE
  5
8C
100
AcDbEntity
  8
4
  6
CONTINUOUS
 62
       179
100
AcDbLine
 10
268.657156
 20
234.426727
 30
0.0
 11
271.573825
 21
233.940616
 31
0.0
  0
LINE
  5
8D
100
AcDbEntity
  8
4
  6
CONTINUOUS
 62
       179
100
AcDbLine
 10
271.573825
 20
234.815616
 30
0.0
 11
269.24049
 21
234.426727
 31
0.0
  0
LINE
  5
8E
100
AcDbEntity
  8
4
  6
CONTINUOUS
 62
       179
100
AcDbLine
 10
269.24049
 20
234.426727
 30
0.0
 11
271.573825
 21
234.037838
 31
0.0
  0
LINE
  5
8F
100
AcDbEntity
  8
4
  6
CONTINUOUS
 62
       179
100
AcDbLine
 10
271.573825
 20
234.718394
 30
0.0
 11
269.823823
 21
234.426727
 31
0.0
  0
LINE
  5
90
100
AcDbEntity
  8
4
  6
CONTINUOUS
 62
       179
100
AcDbLine
 10
269.823823
 20
234.426727
 30
0.0
 11
271.573825
 21
234.13506
 31
0.0
  0
LINE
  5
91
100
AcDbEntity
  8
4
  6
CONTINUOUS
 62
       179
100
AcDbLine
 10
271.573825
 20
234.621172
 30
0.0
 11
270.407157
 21
234.426727
 31
0.0
  0
LINE
  5
92
100
AcDbEntity
  8
4
  6
CONTINUOUS
 62
       179
100
AcDbLine
 10
270.407157
 20
234.426727
 30
0.0
 11
271.573825
 21
234.232282
 31
0.0
  0
LINE
  5
93
100
AcDbEntity
  8
4
  6
CONTINUOUS
 62
       179
100
AcDbLine
 10
271.573825
 20
234.523949
 30
0.0
 11
270.990491
 21
234.426727
 31
0.0
  0
LINE
  5
94
100
AcDbEntity
  8
4
  6
CONTINUOUS
 62
       179
100
AcDbLine
 10
270.990491
 20
234.426727
 30
0.0
 11
271.573825
 21
234.329505
 31
0.0
  0
LINE
  5
95
100
AcDbEntity
  8
4
  6
CONTINUOUS
 62
       179
100
AcDbLine
 10
247.442825
 20
234.426727
 30
0.0
 11
275.073822
 21
234.426727
 31
0.0
  0
LINE
  5
96
100
AcDbEntity
  8
4
  6
CONTINUOUS
 62
       179
100
AcDbLine
 10
263.073822
 20
205.187057
 30
0.0
 11
263.073822
 21
235.426727
 31
0.0
  0
ENDBLK
  5
97
100
AcDbEntity
  8
0
100
AcDbBlockEnd
  0
BLOCK
  5
99
100
AcDbEntity
  8
0
 62
         0
100
AcDbBlockBegin
  2
MEDCLUMP_DMS_112_
 70
         2
 10
0.0
 20
0.0
 30
0.0
  3
MEDCLUMP_DMS_112_
  1

  0
MTEXT
  5
9B
100
AcDbEntity
  8
4
100
AcDbMText
 10
323.605075
 20
239.0596117496
 30
0.0
 40
3.5
 41
0.0
 71
         1
 72
         1
  1
51
  7
SLDTEXTSTYLE2
  0
LINE
  5
9C
100
AcDbEntity
  8
4
  6
CONTINUOUS
 62
       179
100
AcDbLine
 10
300.073822
 20
183.895111
 30
0.0
 11
300.073822
 21
235.601471
 31
0.0
  0
LINE
  5
9D
100
AcDbEntity
  8
4
  6
CONTINUOUS
 62
       179
100
AcDbLine
 10
303.573825
 20
235.184805
 30
0.0
 11
300.073822
 21
234.601471
 31
0.0
  0
LINE
  5
9E
100
AcDbEntity
  8
4
  6
CONTINUOUS
 62
       179
100
AcDbLine
 10
300.073822
 20
234.601471
 30
0.0
 11
303.573825
 21
234.018137
 31
0.0
  0
LINE
  5
9F
100
AcDbEntity
  8
4
  6
CONTINUOUS
 62
       179
100
AcDbLine
 10
303.573825
 20
234.018137
 30
0.0
 11
303.573825
 21
235.184805
 31
0.0
  0
LINE
  5
A0
100
AcDbEntity
  8
4
  6
CONTINUOUS
 62
       179
100
AcDbLine
 10
303.573825
 20
235.087582
 30
0.0
 11
300.657156
 21
234.601471
 31
0.0
  0
LINE
  5
A1
100
AcDbEntity
  8
4
  6
CONTINUOUS
 62
       179
100
AcDbLine
 10
300.657156
 20
234.601471
 30
0.0
 11
303.573825
 21
234.11536
 31
0.0
  0
LINE
  5
A2
100
AcDbEntity
  8
4
  6
CONTINUOUS
 62
       179
100
AcDbLine
 10
303.573825
 20
234.99036
 30
0.0
 11
301.24049
 21
234.601471
 31
0.0
  0
LINE
  5
A3
100
AcDbEntity
  8
4
  6
CONTINUOUS
 62
       179
100
AcDbLine
 10
301.24049
 20
234.601471
 30
0.0
 11
303.573825
 21
234.212582
 31
0.0
  0
LINE
  5
A4
100
AcDbEntity
  8
4
  6
CONTINUOUS
 62
       179
100
AcDbLine
 10
303.573825
 20
234.893138
 30
0.0
 11
301.823823
 21
234.601471
 31
0.0
  0
LINE
  5
A5
100
AcDbEntity
  8
4
  6
CONTINUOUS
 62
       179
100
AcDbLine
 10
301.823823
 20
234.601471
 30
0.0
 11
303.573825
 21
234.309804
 31
0.0
  0
LINE
  5
A6
100
AcDbEntity
  8
4
  6
CONTINUOUS
 62
       179
100
AcDbLine
 10
303.573825
 20
234.795916
 30
0.0
 11
302.407157
 21
234.601471
 31
0.0
  0
LINE
  5
A7
100
AcDbEntity
  8
4
  6
CONTINUOUS
 62
       179
100
AcDbLine
 10
302.407157
 20
234.601471
 30
0.0
 11
303.573825
 21
234.407026
 31
0.0
  0
LINE
  5
A8
100
AcDbEntity
  8
4
  6
CONTINUOUS
 62
       179
100
AcDbLine
 10
303.573825
 20
234.698693
 30
0.0
 11
302.990491
 21
234.601471
 31
0.0
  0
LINE
  5
A9
100
AcDbEntity
  8
4
  6
CONTINUOUS
 62
       179
100
AcDbLine
 10
302.990491
 20
234.601471
 30
0.0
 11
303.573825
 21
234.504249
 31
0.0
  0
LINE
  5
AA
100
AcDbEntity
  8
4
  6
CONTINUOUS
 62
       179
100
AcDbLine
 10
347.573819
 20
235.184805
 30
0.0
 11
351.073822
 21
234.601471
 31
0.0
  0
LINE
  5
AB
100
AcDbEntity
  8
4
  6
CONTINUOUS
 62
       179
100
AcDbLine
 10
351.073822
 20
234.601471
 30
0.0
 11
347.573819
 21
234.018137
 31
0.0
  0
LINE
  5
AC
100
AcDbEntity
  8
4
  6
CONTINUOUS
 62
       179
100
AcDbLine
 10
347.573819
 20
234.018137
 30
0.0
 11
347.573819
 21
235.184805
 31
0.0
  0
LINE
  5
AD
100
AcDbEntity
  8
4
  6
CONTINUOUS
 62
       179
100
AcDbLine
 10
347.573819
 20
235.087582
 30
0.0
 11
350.490488
 21
234.601471
 31
0.0
  0
LINE
  5
AE
100
AcDbEntity
  8
4
  6
CONTINUOUS
 62
       179
100
AcDbLine
 10
350.490488
 20
234.601471
 30
0.0
 11
347.573819
 21
234.11536
 31
0.0
  0
LINE
  5
AF
100
AcDbEntity
  8
4
  6
CONTINUOUS
 62
       179
100
AcDbLine
 10
347.573819
 20
234.99036
 30
0.0
 11
349.907154
 21
234.601471
 31
0.0
  0
LINE
  5
B0
100
AcDbEntity
  8
4
  6
CONTINUOUS
 62
       179
100
AcDbLine
 10
349.907154
 20
234.601471
 30
0.0
 11
347.573819
 21
234.212582
 31
0.0
  0
LINE
  5
B1
100
AcDbEntity
  8
4
  6
CONTINUOUS
 62
       179
100
AcDbLine
 10
347.573819
 20
234.893138
 30
0.0
 11
349.323821
 21
234.601471
 31
0.0
  0
LINE
  5
B2
100
AcDbEntity
  8
4
  6
CONTINUOUS
 62
       179
100
AcDbLine
 10
349.323821
 20
234.601471
 30
0.0
 11
347.573819
 21
234.309804
 31
0.0
  0
LINE
  5
B3
100
AcDbEntity
  8
4
  6
CONTINUOUS
 62
       179
100
AcDbLine
 10
347.573819
 20
234.795916
 30
0.0
 11
348.740487
 21
234.601471
 31
0.0
  0
LINE
  5
B4
100
AcDbEntity
  8
4
  6
CONTINUOUS
 62
       179
100
AcDbLine
 10
348.740487
 20
234.601471
 30
0.0
 11
347.573819
 21
234.407026
 31
0.0
  0
LINE
  5
B5
100
AcDbEntity
  8
4
  6
CONTINUOUS
 62
       179
100
AcDbLine
 10
347.573819
 20
234.698693
 30
0.0
 11
348.157153
 21
234.601471
 31
0.0
  0
LINE
  5
B6
100
AcDbEntity
  8
4
  6
CONTINUOUS
 62
       179
100
AcDbLine
 10
348.157153
 20
234.601471
 30
0.0
 11
347.573819
 21
234.504249
 31
0.0
  0
LINE
  5
B7
100
AcDbEntity
  8
4
  6
CONTINUOUS
 62
       179
100
AcDbLine
 10
300.073822
 20
234.601471
 30
0.0
 11
351.073822
 21
234.601471
 31
0.0
  0
ENDBLK
  5
B8
100
AcDbEntity
  8
0
100
AcDbBlockEnd
  0
BLOCK
  5
BA
100
AcDbEntity
  8
0
 62
         0
100
AcDbBlockBegin
  2
MEDCLUMP_DMS_118_
 70
         2
 10
0.0
 20
0.0
 30
0.0
  3
MEDCLUMP_DMS_118_
  1

  0
MTEXT
  5
BB
100
AcDbEntity
  8
4
100
AcDbMText
 10
245.608325
 20
227.2019147496
 30
0.0
 40
3.5
 41
0.0
 71
         1
 72
         1
  1
 3 
  7
SLDTEXTSTYLE1
  0
LINE
  5
BC
100
AcDbEntity
  8
4
  6
CONTINUOUS
 62
       179
100
AcDbLine
 10
256.573819
 20
223.327108
 30
0.0
 11
260.073822
 21
222.743774
 31
0.0
  0
LINE
  5
BD
100
AcDbEntity
  8
4
  6
CONTINUOUS
 62
       179
100
AcDbLine
 10
260.073822
 20
222.743774
 30
0.0
 11
256.573819
 21
222.16044
 31
0.0
  0
LINE
  5
BE
100
AcDbEntity
  8
4
  6
CONTINUOUS
 62
       179
100
AcDbLine
 10
256.573819
 20
222.16044
 30
0.0
 11
256.573819
 21
223.327108
 31
0.0
  0
LINE
  5
BF
100
AcDbEntity
  8
4
  6
CONTINUOUS
 62
       179
100
AcDbLine
 10
256.573819
 20
223.229885
 30
0.0
 11
259.490488
 21
222.743774
 31
0.0
  0
LINE
  5
C0
100
AcDbEntity
  8
4
  6
CONTINUOUS
 62
       179
100
AcDbLine
 10
259.490488
 20
222.743774
 30
0.0
 11
256.573819
 21
222.257663
 31
0.0
  0
LINE
  5
C1
100
AcDbEntity
  8
4
  6
CONTINUOUS
 62
       179
100
AcDbLine
 10
256.573819
 20
223.132663
 30
0.0
 11
258.907154
 21
222.743774
 31
0.0
  0
LINE
  5
C2
100
AcDbEntity
  8
4
  6
CONTINUOUS
 62
       179
100
AcDbLine
 10
258.907154
 20
222.743774
 30
0.0
 11
256.573819
 21
222.354885
 31
0.0
  0
LINE
  5
C3
100
AcDbEntity
  8
4
  6
CONTINUOUS
 62
       179
100
AcDbLine
 10
256.573819
 20
223.035441
 30
0.0
 11
258.323821
 21
222.743774
 31
0.0
  0
LINE
  5
C4
100
AcDbEntity
  8
4
  6
CONTINUOUS
 62
       179
100
AcDbLine
 10
258.323821
 20
222.743774
 30
0.0
 11
256.573819
 21
222.452107
 31
0.0
  0
LINE
  5
C5
100
AcDbEntity
  8
4
  6
CONTINUOUS
 62
       179
100
AcDbLine
 10
256.573819
 20
222.938219
 30
0.0
 11
257.740487
 21
222.743774
 31
0.0
  0
LINE
  5
C6
100
AcDbEntity
  8
4
  6
CONTINUOUS
 62
       179
100
AcDbLine
 10
257.740487
 20
222.743774
 30
0.0
 11
256.573819
 21
222.549329
 31
0.0
  0
LINE
  5
C7
100
AcDbEntity
  8
4
  6
CONTINUOUS
 62
       179
100
AcDbLine
 10
256.573819
 20
222.840996
 30
0.0
 11
257.157153
 21
222.743774
 31
0.0
  0
LINE
  5
C8
100
AcDbEntity
  8
4
  6
CONTINUOUS
 62
       179
100
AcDbLine
 10
257.157153
 20
222.743774
 30
0.0
 11
256.573819
 21
222.646552
 31
0.0
  0
LINE
  5
C9
100
AcDbEntity
  8
4
  6
CONTINUOUS
 62
       179
100
AcDbLine
 10
266.573825
 20
223.327108
 30
0.0
 11
263.073822
 21
222.743774
 31
0.0
  0
LINE
  5
CA
100
AcDbEntity
  8
4
  6
CONTINUOUS
 62
       179
100
AcDbLine
 10
263.073822
 20
222.743774
 30
0.0
 11
266.573825
 21
222.16044
 31
0.0
  0
LINE
  5
CB
100
AcDbEntity
  8
4
  6
CONTINUOUS
 62
       179
100
AcDbLine
 10
266.573825
 20
222.16044
 30
0.0
 11
266.573825
 21
223.327108
 31
0.0
  0
LINE
  5
CC
100
AcDbEntity
  8
4
  6
CONTINUOUS
 62
       179
100
AcDbLine
 10
266.573825
 20
223.229885
 30
0.0
 11
263.657156
 21
222.743774
 31
0.0
  0
LINE
  5
CD
100
AcDbEntity
  8
4
  6
CONTINUOUS
 62
       179
100
AcDbLine
 10
263.657156
 20
222.743774
 30
0.0
 11
266.573825
 21
222.257663
 31
0.0
  0
LINE
  5
CE
100
AcDbEntity
  8
4
  6
CONTINUOUS
 62
       179
100
AcDbLine
 10
266.573825
 20
223.132663
 30
0.0
 11
264.24049
 21
222.743774
 31
0.0
  0
LINE
  5
CF
100
AcDbEntity
  8
4
  6
CONTINUOUS
 62
       179
100
AcDbLine
 10
264.24049
 20
222.743774
 30
0.0
 11
266.573825
 21
222.354885
 31
0.0
  0
LINE
  5
D0
100
AcDbEntity
  8
4
  6
CONTINUOUS
 62
       179
100
AcDbLine
 10
266.573825
 20
223.035441
 30
0.0
 11
264.823823
 21
222.743774
 31
0.0
  0
LINE
  5
D1
100
AcDbEntity
  8
4
  6
CONTINUOUS
 62
       179
100
AcDbLine
 10
264.823823
 20
222.743774
 30
0.0
 11
266.573825
 21
222.452107
 31
0.0
  0
LINE
  5
D2
100
AcDbEntity
  8
4
  6
CONTINUOUS
 62
       179
100
AcDbLine
 10
266.573825
 20
222.938219
 30
0.0
 11
265.407157
 21
222.743774
 31
0.0
  0
LINE
  5
D3
100
AcDbEntity
  8
4
  6
CONTINUOUS
 62
       179
100
AcDbLine
 10
265.407157
 20
222.743774
 30
0.0
 11
266.573825
 21
222.549329
 31
0.0
  0
LINE
  5
D4
100
AcDbEntity
  8
4
  6
CONTINUOUS
 62
       179
100
AcDbLine
 10
266.573825
 20
222.840996
 30
0.0
 11
265.990491
 21
222.743774
 31
0.0
  0
LINE
  5
D5
100
AcDbEntity
  8
4
  6
CONTINUOUS
 62
       179
100
AcDbLine
 10
265.990491
 20
222.743774
 30
0.0
 11
266.573825
 21
222.646552
 31
0.0
  0
LINE
  5
D6
100
AcDbEntity
  8
4
  6
CONTINUOUS
 62
       179
100
AcDbLine
 10
244.442825
 20
222.743774
 30
0.0
 11
270.073822
 21
222.743774
 31
0.0
  0
LINE
  5
D7
100
AcDbEntity
  8
4
  6
CONTINUOUS
 62
       179
100
AcDbLine
 10
263.073822
 20
205.187057
 30
0.0
 11
263.073822
 21
223.743774
 31
0.0
  0
ENDBLK
  5
D8
100
AcDbEntity
  8
0
100
AcDbBlockEnd
  0
BLOCK
  5
DA
100
AcDbEntity
  8
0
 62
         0
100
AcDbBlockBegin
  2
MEDCLUMP_SET_138_
 70
         0
 10
0.0
 20
0.0
 30
0.0
  3
MEDCLUMP_SET_138_
  1

  0
LINE
  5
DB
100
AcDbEntity
  8
11
  6
CONTINUOUS
 62
         3
100
AcDbLine
 10
300.073822
 20
146.187057
 30
0.0
 11
282.573822
 21
146.187057
 31
0.0
  0
LINE
  5
DC
100
AcDbEntity
  8
11
  6
CONTINUOUS
 62
         3
100
AcDbLine
 10
282.573822
 20
146.187057
 30
0.0
 11
282.573822
 21
180.187073
 31
0.0
  0
LINE
  5
DD
100
AcDbEntity
  8
11
  6
CONTINUOUS
 62
         3
100
AcDbLine
 10
282.573822
 20
180.187073
 30
0.0
 11
317.573822
 21
180.187073
 31
0.0
  0
LINE
  5
DE
100
AcDbEntity
  8
11
  6
CONTINUOUS
 62
         3
100
AcDbLine
 10
317.573822
 20
180.187073
 30
0.0
 11
317.573822
 21
146.187057
 31
0.0
  0
LINE
  5
DF
100
AcDbEntity
  8
11
  6
CONTINUOUS
 62
         3
100
AcDbLine
 10
317.573822
 20
146.187057
 30
0.0
 11
300.073822
 21
146.187057
 31
0.0
  0
LINE
  5
E0
100
AcDbEntity
  8
11
  6
CONTINUOUS
 62
         3
100
AcDbLine
 10
316.323822
 20
163.187057
 30
0.0
 11
316.323822
 21
175.437057
 31
0.0
  0
LINE
  5
E1
100
AcDbEntity
  8
11
  6
CONTINUOUS
 62
         3
100
AcDbLine
 10
287.823822
 20
179.437065
 30
0.0
 11
312.323822
 21
179.437065
 31
0.0
  0
LINE
  5
E2
100
AcDbEntity
  8
11
  6
CONTINUOUS
 62
         3
100
AcDbLine
 10
283.823807
 20
150.937057
 30
0.0
 11
283.823807
 21
175.437057
 31
0.0
  0
LINE
  5
E3
100
AcDbEntity
  8
11
  6
CONTINUOUS
 62
         3
100
AcDbLine
 10
287.823822
 20
146.937057
 30
0.0
 11
312.323822
 21
146.937057
 31
0.0
  0
LINE
  5
E4
100
AcDbEntity
  8
11
  6
CONTINUOUS
 62
         3
100
AcDbLine
 10
316.323807
 20
150.937057
 30
0.0
 11
316.323807
 21
163.187057
 31
0.0
  0
LINE
  5
E5
100
AcDbEntity
  8
11
  6
CONTINUOUS
 62
         3
100
AcDbLine
 10
310.56192
 20
163.687057
 30
0.0
 11
309.073822
 21
163.687057
 31
0.0
  0
LINE
  5
E6
100
AcDbEntity
  8
11
  6
CONTINUOUS
 62
         3
100
AcDbLine
 10
309.073822
 20
163.687057
 30
0.0
 11
309.073822
 21
162.687057
 31
0.0
  0
LINE
  5
E7
100
AcDbEntity
  8
11
  6
CONTINUOUS
 62
         3
100
AcDbLine
 10
309.073822
 20
162.687057
 30
0.0
 11
310.56192
 21
162.687057
 31
0.0
  0
LINE
  5
E8
100
AcDbEntity
  8
11
  6
CONTINUOUS
 62
         3
100
AcDbLine
 10
287.273834
 20
173.987076
 30
0.0
 11
288.273834
 21
173.987076
 31
0.0
  0
LINE
  5
E9
100
AcDbEntity
  8
11
  6
CONTINUOUS
 62
         3
100
AcDbLine
 10
288.273834
 20
173.987076
 30
0.0
 11
288.273834
 21
174.987076
 31
0.0
  0
LINE
  5
EA
100
AcDbEntity
  8
11
  6
CONTINUOUS
 62
         3
100
AcDbLine
 10
288.273834
 20
174.987076
 30
0.0
 11
289.273834
 21
174.987076
 31
0.0
  0
LINE
  5
EB
100
AcDbEntity
  8
11
  6
CONTINUOUS
 62
         3
100
AcDbLine
 10
289.273834
 20
174.987076
 30
0.0
 11
289.273834
 21
175.987076
 31
0.0
  0
LINE
  5
EC
100
AcDbEntity
  8
11
  6
CONTINUOUS
 62
         3
100
AcDbLine
 10
289.273834
 20
175.987076
 30
0.0
 11
288.273834
 21
175.987076
 31
0.0
  0
LINE
  5
ED
100
AcDbEntity
  8
11
  6
CONTINUOUS
 62
         3
100
AcDbLine
 10
288.273834
 20
175.987076
 30
0.0
 11
288.273834
 21
176.987076
 31
0.0
  0
LINE
  5
EE
100
AcDbEntity
  8
11
  6
CONTINUOUS
 62
         3
100
AcDbLine
 10
288.273834
 20
176.987076
 30
0.0
 11
287.273834
 21
176.987076
 31
0.0
  0
LINE
  5
EF
100
AcDbEntity
  8
11
  6
CONTINUOUS
 62
         3
100
AcDbLine
 10
287.273834
 20
176.987076
 30
0.0
 11
287.273834
 21
175.987076
 31
0.0
  0
LINE
  5
F0
100
AcDbEntity
  8
11
  6
CONTINUOUS
 62
         3
100
AcDbLine
 10
287.273834
 20
175.987076
 30
0.0
 11
286.273834
 21
175.987076
 31
0.0
  0
LINE
  5
F1
100
AcDbEntity
  8
11
  6
CONTINUOUS
 62
         3
100
AcDbLine
 10
286.273834
 20
175.987076
 30
0.0
 11
286.273834
 21
174.987076
 31
0.0
  0
LINE
  5
F2
100
AcDbEntity
  8
11
  6
CONTINUOUS
 62
         3
100
AcDbLine
 10
286.273834
 20
174.987076
 30
0.0
 11
287.273834
 21
174.987076
 31
0.0
  0
LINE
  5
F3
100
AcDbEntity
  8
11
  6
CONTINUOUS
 62
         3
100
AcDbLine
 10
287.273834
 20
174.987076
 30
0.0
 11
287.273834
 21
173.987076
 31
0.0
  0
LINE
  5
F4
100
AcDbEntity
  8
11
  6
CONTINUOUS
 62
         3
100
AcDbLine
 10
287.273834
 20
149.387085
 30
0.0
 11
288.273834
 21
149.387085
 31
0.0
  0
LINE
  5
F5
100
AcDbEntity
  8
11
  6
CONTINUOUS
 62
         3
100
AcDbLine
 10
288.273834
 20
149.387085
 30
0.0
 11
288.273834
 21
150.387085
 31
0.0
  0
LINE
  5
F6
100
AcDbEntity
  8
11
  6
CONTINUOUS
 62
         3
100
AcDbLine
 10
288.273834
 20
150.387085
 30
0.0
 11
289.273834
 21
150.387085
 31
0.0
  0
LINE
  5
F7
100
AcDbEntity
  8
11
  6
CONTINUOUS
 62
         3
100
AcDbLine
 10
289.273834
 20
150.387085
 30
0.0
 11
289.273834
 21
151.387085
 31
0.0
  0
LINE
  5
F8
100
AcDbEntity
  8
11
  6
CONTINUOUS
 62
         3
100
AcDbLine
 10
289.273834
 20
151.387085
 30
0.0
 11
288.273834
 21
151.387085
 31
0.0
  0
LINE
  5
F9
100
AcDbEntity
  8
11
  6
CONTINUOUS
 62
         3
100
AcDbLine
 10
288.273834
 20
151.387085
 30
0.0
 11
288.273834
 21
152.387085
 31
0.0
  0
LINE
  5
FA
100
AcDbEntity
  8
11
  6
CONTINUOUS
 62
         3
100
AcDbLine
 10
288.273834
 20
152.387085
 30
0.0
 11
287.273834
 21
152.387085
 31
0.0
  0
LINE
  5
FB
100
AcDbEntity
  8
11
  6
CONTINUOUS
 62
         3
100
AcDbLine
 10
287.273834
 20
152.387085
 30
0.0
 11
287.273834
 21
151.387085
 31
0.0
  0
LINE
  5
FC
100
AcDbEntity
  8
11
  6
CONTINUOUS
 62
         3
100
AcDbLine
 10
287.273834
 20
151.387085
 30
0.0
 11
286.273834
 21
151.387085
 31
0.0
  0
LINE
  5
FD
100
AcDbEntity
  8
11
  6
CONTINUOUS
 62
         3
100
AcDbLine
 10
286.273834
 20
151.387085
 30
0.0
 11
286.273834
 21
150.387085
 31
0.0
  0
LINE
  5
FE
100
AcDbEntity
  8
11
  6
CONTINUOUS
 62
         3
100
AcDbLine
 10
286.273834
 20
150.387085
 30
0.0
 11
287.273834
 21
150.387085
 31
0.0
  0
LINE
  5
FF
100
AcDbEntity
  8
11
  6
CONTINUOUS
 62
         3
100
AcDbLine
 10
287.273834
 20
150.387085
 30
0.0
 11
287.273834
 21
149.387085
 31
0.0
  0
LINE
  5
100
100
AcDbEntity
  8
11
  6
CONTINUOUS
 62
         3
100
AcDbLine
 10
311.87384
 20
149.387085
 30
0.0
 11
312.87384
 21
149.387085
 31
0.0
  0
LINE
  5
101
100
AcDbEntity
  8
11
  6
CONTINUOUS
 62
         3
100
AcDbLine
 10
312.87384
 20
149.387085
 30
0.0
 11
312.87384
 21
150.387085
 31
0.0
  0
LINE
  5
102
100
AcDbEntity
  8
11
  6
CONTINUOUS
 62
         3
100
AcDbLine
 10
312.87384
 20
150.387085
 30
0.0
 11
313.87384
 21
150.387085
 31
0.0
  0
LINE
  5
103
100
AcDbEntity
  8
11
  6
CONTINUOUS
 62
         3
100
AcDbLine
 10
313.87384
 20
150.387085
 30
0.0
 11
313.87384
 21
151.387085
 31
0.0
  0
LINE
  5
104
100
AcDbEntity
  8
11
  6
CONTINUOUS
 62
         3
100
AcDbLine
 10
313.87384
 20
151.387085
 30
0.0
 11
312.87384
 21
151.387085
 31
0.0
  0
LINE
  5
105
100
AcDbEntity
  8
11
  6
CONTINUOUS
 62
         3
100
AcDbLine
 10
312.87384
 20
151.387085
 30
0.0
 11
312.87384
 21
152.387085
 31
0.0
  0
LINE
  5
106
100
AcDbEntity
  8
11
  6
CONTINUOUS
 62
         3
100
AcDbLine
 10
312.87384
 20
152.387085
 30
0.0
 11
311.87384
 21
152.387085
 31
0.0
  0
LINE
  5
107
100
AcDbEntity
  8
11
  6
CONTINUOUS
 62
         3
100
AcDbLine
 10
311.87384
 20
152.387085
 30
0.0
 11
311.87384
 21
151.387085
 31
0.0
  0
LINE
  5
108
100
AcDbEntity
  8
11
  6
CONTINUOUS
 62
         3
100
AcDbLine
 10
311.87384
 20
151.387085
 30
0.0
 11
310.87384
 21
151.387085
 31
0.0
  0
LINE
  5
109
100
AcDbEntity
  8
11
  6
CONTINUOUS
 62
         3
100
AcDbLine
 10
310.87384
 20
151.387085
 30
0.0
 11
310.87384
 21
150.387085
 31
0.0
  0
LINE
  5
10A
100
AcDbEntity
  8
11
  6
CONTINUOUS
 62
         3
100
AcDbLine
 10
310.87384
 20
150.387085
 30
0.0
 11
311.87384
 21
150.387085
 31
0.0
  0
LINE
  5
10B
100
AcDbEntity
  8
11
  6
CONTINUOUS
 62
         3
100
AcDbLine
 10
311.87384
 20
150.387085
 30
0.0
 11
311.87384
 21
149.387085
 31
0.0
  0
LINE
  5
10C
100
AcDbEntity
  8
11
  6
CONTINUOUS
 62
         3
100
AcDbLine
 10
311.87384
 20
173.987076
 30
0.0
 11
312.87384
 21
173.987076
 31
0.0
  0
LINE
  5
10D
100
AcDbEntity
  8
11
  6
CONTINUOUS
 62
         3
100
AcDbLine
 10
312.87384
 20
173.987076
 30
0.0
 11
312.87384
 21
174.987076
 31
0.0
  0
LINE
  5
10E
100
AcDbEntity
  8
11
  6
CONTINUOUS
 62
         3
100
AcDbLine
 10
312.87384
 20
174.987076
 30
0.0
 11
313.87384
 21
174.987076
 31
0.0
  0
LINE
  5
10F
100
AcDbEntity
  8
11
  6
CONTINUOUS
 62
         3
100
AcDbLine
 10
313.87384
 20
174.987076
 30
0.0
 11
313.87384
 21
175.987076
 31
0.0
  0
LINE
  5
110
100
AcDbEntity
  8
11
  6
CONTINUOUS
 62
         3
100
AcDbLine
 10
313.87384
 20
175.987076
 30
0.0
 11
312.87384
 21
175.987076
 31
0.0
  0
LINE
  5
111
100
AcDbEntity
  8
11
  6
CONTINUOUS
 62
         3
100
AcDbLine
 10
312.87384
 20
175.987076
 30
0.0
 11
312.87384
 21
176.987076
 31
0.0
  0
LINE
  5
112
100
AcDbEntity
  8
11
  6
CONTINUOUS
 62
         3
100
AcDbLine
 10
312.87384
 20
176.987076
 30
0.0
 11
311.87384
 21
176.987076
 31
0.0
  0
LINE
  5
113
100
AcDbEntity
  8
11
  6
CONTINUOUS
 62
         3
100
AcDbLine
 10
311.87384
 20
176.987076
 30
0.0
 11
311.87384
 21
175.987076
 31
0.0
  0
LINE
  5
114
100
AcDbEntity
  8
11
  6
CONTINUOUS
 62
         3
100
AcDbLine
 10
311.87384
 20
175.987076
 30
0.0
 11
310.87384
 21
175.987076
 31
0.0
  0
LINE
  5
115
100
AcDbEntity
  8
11
  6
CONTINUOUS
 62
         3
100
AcDbLine
 10
310.87384
 20
175.987076
 30
0.0
 11
310.87384
 21
174.987076
 31
0.0
  0
LINE
  5
116
100
AcDbEntity
  8
11
  6
CONTINUOUS
 62
         3
100
AcDbLine
 10
310.87384
 20
174.987076
 30
0.0
 11
311.87384
 21
174.987076
 31
0.0
  0
LINE
  5
117
100
AcDbEntity
  8
11
  6
CONTINUOUS
 62
         3
100
AcDbLine
 10
311.87384
 20
174.987076
 30
0.0
 11
311.87384
 21
173.987076
 31
0.0
  0
LINE
  5
118
100
AcDbEntity
  8
11
  6
CENTERX2
 62
         1
100
AcDbLine
 10
238.86647
 20
163.187057
 30
0.0
 11
356.97171
 21
163.187057
 31
0.0
  0
LINE
  5
119
100
AcDbEntity
  8
11
  6
CENTERX2
 62
         1
100
AcDbLine
 10
253.87381
 20
163.917084
 30
0.0
 11
253.87381
 21
169.456863
 31
0.0
  0
LINE
  5
11A
100
AcDbEntity
  8
11
  6
CENTERX2
 62
         1
100
AcDbLine
 10
285.076843
 20
175.487076
 30
0.0
 11
314.711823
 21
175.487076
 31
0.0
  0
LINE
  5
11B
100
AcDbEntity
  8
11
  6
CENTERX2
 62
         1
100
AcDbLine
 10
312.37384
 20
148.332703
 30
0.0
 11
312.37384
 21
177.823837
 31
0.0
  0
LINE
  5
11C
100
AcDbEntity
  8
11
  6
CENTERX2
 62
         1
100
AcDbLine
 10
285.796112
 20
150.887085
 30
0.0
 11
314.999512
 21
150.887085
 31
0.0
  0
LINE
  5
11D
100
AcDbEntity
  8
11
  6
CENTERX2
 62
         1
100
AcDbLine
 10
287.773834
 20
148.764252
 30
0.0
 11
287.773834
 21
177.536118
 31
0.0
  0
LINE
  5
11E
100
AcDbEntity
  8
11
  6
CENTERX2
 62
         1
100
AcDbLine
 10
300.073822
 20
143.479019
 30
0.0
 11
300.073822
 21
182.895111
 31
0.0
  0
ARC
  5
11F
100
AcDbEntity
  8
11
  6
CONTINUOUS
 62
         3
100
AcDbCircle
 10
312.3238209883
 20
175.4370639883
 30
0.0
 40
4.0000010117
100
AcDbArc
 50
360.0
 51
89.9999855086
  0
ARC
  5
120
100
AcDbEntity
  8
11
  6
CONTINUOUS
 62
         3
100
AcDbCircle
 10
287.8238155117
 20
175.4370564883
 30
0.0
 40
4.0000085117
100
AcDbArc
 50
89.999907062
 51
180.0
  0
ARC
  5
121
100
AcDbEntity
  8
11
  6
CONTINUOUS
 62
         3
100
AcDbCircle
 10
287.8238115117
 20
150.9370615117
 30
0.0
 40
4.0000045117
100
AcDbArc
 50
180.0
 51
270.0001502337
  0
ARC
  5
122
100
AcDbEntity
  8
11
  6
CONTINUOUS
 62
         3
100
AcDbCircle
 10
312.3238174883
 20
150.9370465117
 30
0.0
 40
3.9999895117
100
AcDbArc
 50
270.0000646255
 51
0.0
  0
CIRCLE
  5
123
100
AcDbEntity
  8
11
  6
CONTINUOUS
 62
         3
100
AcDbCircle
 10
300.073822
 20
163.187057
 30
0.0
 40
8.5
  0
CIRCLE
  5
124
100
AcDbEntity
  8
11
  6
CONTINUOUS
 62
         3
100
AcDbCircle
 10
300.073822
 20
163.187057
 30
0.0
 40
13.75
  0
CIRCLE
  5
125
100
AcDbEntity
  8
11
  6
CONTINUOUS
 62
         3
100
AcDbCircle
 10
300.073822
 20
163.187057
 30
0.0
 40
10.5
  0
CIRCLE
  5
126
100
AcDbEntity
  8
11
  6
CONTINUOUS
 62
         3
100
AcDbCircle
 10
287.773834
 20
175.487076
 30
0.0
 40
3.0
  0
CIRCLE
  5
127
100
AcDbEntity
  8
11
  6
CONTINUOUS
 62
         3
100
AcDbCircle
 10
287.773834
 20
150.887085
 30
0.0
 40
3.0
  0
CIRCLE
  5
128
100
AcDbEntity
  8
11
  6
CONTINUOUS
 62
         3
100
AcDbCircle
 10
312.37384
 20
150.887085
 30
0.0
 40
3.0
  0
CIRCLE
  5
129
100
AcDbEntity
  8
11
  6
CONTINUOUS
 62
         3
100
AcDbCircle
 10
312.37384
 20
175.487076
 30
0.0
 40
3.0
  0
CIRCLE
  5
12A
100
AcDbEntity
  8
11
  6
CONTINUOUS
 62
         3
100
AcDbCircle
 10
300.073792
 20
163.187057
 30
0.0
 40
0.75
  0
CIRCLE
  5
12B
100
AcDbEntity
  8
11
  6
CONTINUOUS
 62
         3
100
AcDbCircle
 10
295.960205
 20
165.562073
 30
0.0
 40
0.75
  0
CIRCLE
  5
12C
100
AcDbEntity
  8
11
  6
CONTINUOUS
 62
         3
100
AcDbCircle
 10
295.960205
 20
160.812057
 30
0.0
 40
0.75
  0
CIRCLE
  5
12D
100
AcDbEntity
  8
11
  6
CONTINUOUS
 62
         3
100
AcDbCircle
 10
300.073822
 20
158.437057
 30
0.0
 40
0.75
  0
CIRCLE
  5
12E
100
AcDbEntity
  8
11
  6
CONTINUOUS
 62
         3
100
AcDbCircle
 10
304.187439
 20
160.812073
 30
0.0
 40
0.75
  0
CIRCLE
  5
12F
100
AcDbEntity
  8
11
  6
CONTINUOUS
 62
         3
100
AcDbCircle
 10
304.187439
 20
165.562057
 30
0.0
 40
0.75
  0
CIRCLE
  5
130
100
AcDbEntity
  8
11
  6
CONTINUOUS
 62
         3
100
AcDbCircle
 10
300.073822
 20
167.937057
 30
0.0
 40
0.75
  0
CIRCLE
  5
131
100
AcDbEntity
  8
11
  6
CENTERX2
 62
         1
100
AcDbCircle
 10
300.073822
 20
163.187057
 30
0.0
 40
4.75
  0
ENDBLK
  5
132
100
AcDbEntity
  8
0
100
AcDbBlockEnd
  0
BLOCK
  5
134
100
AcDbEntity
  8
0
 62
         0
100
AcDbBlockBegin
  2
MEDCLUMP_DMS_170_
 70
         0
 10
0.0
 20
0.0
 30
0.0
  3
MEDCLUMP_DMS_170_
  1

  0
LINE
  5
135
100
AcDbEntity
  8
4
  6
CONTINUOUS
 62
       179
100
AcDbLine
 10
300.073822
 20
180.187073
 30
0.0
 11
300.073822
 21
182.895111
 31
0.0
  0
ENDBLK
  5
136
100
AcDbEntity
  8
0
100
AcDbBlockEnd
  0
BLOCK
  5
138
100
AcDbEntity
  8
0
 62
         0
100
AcDbBlockBegin
  2
MEDCLUMP_SET_185_
 70
         0
 10
0.0
 20
0.0
 30
0.0
  3
MEDCLUMP_SET_185_
  1

  0
LINE
  5
139
100
AcDbEntity
  8
11
  6
CENTERX2
 62
         1
100
AcDbLine
 10
153.679565
 20
116.219917
 30
0.0
 11
153.679565
 21
206.195267
 31
0.0
  0
LINE
  5
13A
100
AcDbEntity
  8
11
  6
CENTERX2
 62
         1
100
AcDbLine
 10
146.858704
 20
188.187057
 30
0.0
 11
161.709488
 21
188.187057
 31
0.0
  0
LINE
  5
13B
100
AcDbEntity
  8
11
  6
CENTERX2
 62
         1
100
AcDbLine
 10
146.423004
 20
138.187057
 30
0.0
 11
161.709488
 21
138.187057
 31
0.0
  0
CIRCLE
  5
13C
100
AcDbEntity
  8
11
  6
CONTINUOUS
 62
         3
100
AcDbCircle
 10
153.679565
 20
138.187057
 30
0.0
 40
2.5
  0
CIRCLE
  5
13D
100
AcDbEntity
  8
11
  6
CONTINUOUS
 62
         3
100
AcDbCircle
 10
153.679565
 20
188.187057
 30
0.0
 40
2.5
  0
ENDBLK
  5
13E
100
AcDbEntity
  8
0
100
AcDbBlockEnd
  0
BLOCK
  5
140
100
AcDbEntity
  8
0
 62
         0
100
AcDbBlockBegin
  2
MEDCLUMP_DMS_195_
 70
         2
 10
0.0
 20
0.0
 30
0.0
  3
MEDCLUMP_DMS_195_
  1

  0
MTEXT
  5
142
100
AcDbEntity
  8
4
100
AcDbMText
 10
245.742572
 20
218.3646047496
 30
0.0
 40
3.5
 41
0.0
 71
         1
 72
         1
  1
 20 
  7
SLDTEXTSTYLE3
  0
LINE
  5
143
100
AcDbEntity
  8
4
  6
CONTINUOUS
 62
       179
100
AcDbLine
 10
256.573819
 20
213.32313
 30
0.0
 11
260.073822
 21
213.906464
 31
0.0
  0
LINE
  5
144
100
AcDbEntity
  8
4
  6
CONTINUOUS
 62
       179
100
AcDbLine
 10
260.073822
 20
213.906464
 30
0.0
 11
256.573819
 21
214.489798
 31
0.0
  0
LINE
  5
145
100
AcDbEntity
  8
4
  6
CONTINUOUS
 62
       179
100
AcDbLine
 10
256.573819
 20
214.489798
 30
0.0
 11
256.573819
 21
213.32313
 31
0.0
  0
LINE
  5
146
100
AcDbEntity
  8
4
  6
CONTINUOUS
 62
       179
100
AcDbLine
 10
256.573819
 20
213.420353
 30
0.0
 11
259.490488
 21
213.906464
 31
0.0
  0
LINE
  5
147
100
AcDbEntity
  8
4
  6
CONTINUOUS
 62
       179
100
AcDbLine
 10
259.490488
 20
213.906464
 30
0.0
 11
256.573819
 21
214.392575
 31
0.0
  0
LINE
  5
148
100
AcDbEntity
  8
4
  6
CONTINUOUS
 62
       179
100
AcDbLine
 10
256.573819
 20
213.517575
 30
0.0
 11
258.907154
 21
213.906464
 31
0.0
  0
LINE
  5
149
100
AcDbEntity
  8
4
  6
CONTINUOUS
 62
       179
100
AcDbLine
 10
258.907154
 20
213.906464
 30
0.0
 11
256.573819
 21
214.295353
 31
0.0
  0
LINE
  5
14A
100
AcDbEntity
  8
4
  6
CONTINUOUS
 62
       179
100
AcDbLine
 10
256.573819
 20
213.614797
 30
0.0
 11
258.323821
 21
213.906464
 31
0.0
  0
LINE
  5
14B
100
AcDbEntity
  8
4
  6
CONTINUOUS
 62
       179
100
AcDbLine
 10
258.323821
 20
213.906464
 30
0.0
 11
256.573819
 21
214.198131
 31
0.0
  0
LINE
  5
14C
100
AcDbEntity
  8
4
  6
CONTINUOUS
 62
       179
100
AcDbLine
 10
256.573819
 20
213.712019
 30
0.0
 11
257.740487
 21
213.906464
 31
0.0
  0
LINE
  5
14D
100
AcDbEntity
  8
4
  6
CONTINUOUS
 62
       179
100
AcDbLine
 10
257.740487
 20
213.906464
 30
0.0
 11
256.573819
 21
214.100909
 31
0.0
  0
LINE
  5
14E
100
AcDbEntity
  8
4
  6
CONTINUOUS
 62
       179
100
AcDbLine
 10
256.573819
 20
213.809242
 30
0.0
 11
257.157153
 21
213.906464
 31
0.0
  0
LINE
  5
14F
100
AcDbEntity
  8
4
  6
CONTINUOUS
 62
       179
100
AcDbLine
 10
257.157153
 20
213.906464
 30
0.0
 11
256.573819
 21
214.003686
 31
0.0
  0
LINE
  5
150
100
AcDbEntity
  8
4
  6
CONTINUOUS
 62
       179
100
AcDbLine
 10
243.573825
 20
213.32313
 30
0.0
 11
240.073822
 21
213.906464
 31
0.0
  0
LINE
  5
151
100
AcDbEntity
  8
4
  6
CONTINUOUS
 62
       179
100
AcDbLine
 10
240.073822
 20
213.906464
 30
0.0
 11
243.573825
 21
214.489798
 31
0.0
  0
LINE
  5
152
100
AcDbEntity
  8
4
  6
CONTINUOUS
 62
       179
100
AcDbLine
 10
243.573825
 20
214.489798
 30
0.0
 11
243.573825
 21
213.32313
 31
0.0
  0
LINE
  5
153
100
AcDbEntity
  8
4
  6
CONTINUOUS
 62
       179
100
AcDbLine
 10
243.573825
 20
213.420353
 30
0.0
 11
240.657156
 21
213.906464
 31
0.0
  0
LINE
  5
154
100
AcDbEntity
  8
4
  6
CONTINUOUS
 62
       179
100
AcDbLine
 10
240.657156
 20
213.906464
 30
0.0
 11
243.573825
 21
214.392575
 31
0.0
  0
LINE
  5
155
100
AcDbEntity
  8
4
  6
CONTINUOUS
 62
       179
100
AcDbLine
 10
243.573825
 20
213.517575
 30
0.0
 11
241.24049
 21
213.906464
 31
0.0
  0
LINE
  5
156
100
AcDbEntity
  8
4
  6
CONTINUOUS
 62
       179
100
AcDbLine
 10
241.24049
 20
213.906464
 30
0.0
 11
243.573825
 21
214.295353
 31
0.0
  0
LINE
  5
157
100
AcDbEntity
  8
4
  6
CONTINUOUS
 62
       179
100
AcDbLine
 10
243.573825
 20
213.614797
 30
0.0
 11
241.823823
 21
213.906464
 31
0.0
  0
LINE
  5
158
100
AcDbEntity
  8
4
  6
CONTINUOUS
 62
       179
100
AcDbLine
 10
241.823823
 20
213.906464
 30
0.0
 11
243.573825
 21
214.198131
 31
0.0
  0
LINE
  5
159
100
AcDbEntity
  8
4
  6
CONTINUOUS
 62
       179
100
AcDbLine
 10
243.573825
 20
213.712019
 30
0.0
 11
242.407157
 21
213.906464
 31
0.0
  0
LINE
  5
15A
100
AcDbEntity
  8
4
  6
CONTINUOUS
 62
       179
100
AcDbLine
 10
242.407157
 20
213.906464
 30
0.0
 11
243.573825
 21
214.100909
 31
0.0
  0
LINE
  5
15B
100
AcDbEntity
  8
4
  6
CONTINUOUS
 62
       179
100
AcDbLine
 10
243.573825
 20
213.809242
 30
0.0
 11
242.990491
 21
213.906464
 31
0.0
  0
LINE
  5
15C
100
AcDbEntity
  8
4
  6
CONTINUOUS
 62
       179
100
AcDbLine
 10
242.990491
 20
213.906464
 30
0.0
 11
243.573825
 21
214.003686
 31
0.0
  0
LINE
  5
15D
100
AcDbEntity
  8
4
  6
CONTINUOUS
 62
       179
100
AcDbLine
 10
240.073822
 20
213.906464
 30
0.0
 11
260.073822
 21
213.906464
 31
0.0
  0
LINE
  5
15E
100
AcDbEntity
  8
4
  6
CONTINUOUS
 62
       179
100
AcDbLine
 10
240.073822
 20
169.852219
 30
0.0
 11
240.073822
 21
187.01503
 31
0.0
  0
LINE
  5
15F
100
AcDbEntity
  8
4
  6
CONTINUOUS
 62
       179
100
AcDbLine
 10
240.073822
 20
189.592178
 30
0.0
 11
240.073822
 21
214.906464
 31
0.0
  0
ENDBLK
  5
160
100
AcDbEntity
  8
0
100
AcDbBlockEnd
  0
BLOCK
  5
162
100
AcDbEntity
  8
0
 62
         0
100
AcDbBlockBegin
  2
MEDCLUMP_CRH_235_
 70
         0
 10
0.0
 20
0.0
 30
0.0
  3
MEDCLUMP_CRH_235_
  1

  0
LINE
  5
163
100
AcDbEntity
  8
5
  6
CONTINUOUS
 62
       179
100
AcDbLine
 10
251.073822
 20
118.323494
 30
0.0
 11
252.210266
 21
117.187057
 31
0.0
  0
LINE
  5
164
100
AcDbEntity
  8
5
  6
CONTINUOUS
 62
       179
100
AcDbLine
 10
254.056274
 20
118.169487
 30
0.0
 11
251.073822
 21
121.151917
 31
0.0
  0
LINE
  5
165
100
AcDbEntity
  8
5
  6
CONTINUOUS
 62
       179
100
AcDbLine
 10
251.073822
 20
123.980347
 30
0.0
 11
256.867126
 21
118.187057
 31
0.0
  0
LINE
  5
166
100
AcDbEntity
  8
5
  6
CONTINUOUS
 62
       179
100
AcDbLine
 10
259.695557
 20
118.187057
 30
0.0
 11
251.073822
 21
126.808777
 31
0.0
  0
LINE
  5
167
100
AcDbEntity
  8
5
  6
CONTINUOUS
 62
       179
100
AcDbLine
 10
251.073822
 20
129.637207
 30
0.0
 11
262.523987
 21
118.187057
 31
0.0
  0
LINE
  5
168
100
AcDbEntity
  8
5
  6
CONTINUOUS
 62
       179
100
AcDbLine
 10
263.073822
 20
120.46563
 30
0.0
 11
251.073822
 21
132.465637
 31
0.0
  0
LINE
  5
169
100
AcDbEntity
  8
5
  6
CONTINUOUS
 62
       179
100
AcDbLine
 10
251.073822
 20
135.294052
 30
0.0
 11
263.073822
 21
123.294052
 31
0.0
  0
LINE
  5
16A
100
AcDbEntity
  8
5
  6
CONTINUOUS
 62
       179
100
AcDbLine
 10
263.073822
 20
126.122482
 30
0.0
 11
251.509308
 21
137.687012
 31
0.0
  0
LINE
  5
16B
100
AcDbEntity
  8
5
  6
CONTINUOUS
 62
       179
100
AcDbLine
 10
254.337738
 20
137.687012
 30
0.0
 11
263.073822
 21
128.950912
 31
0.0
  0
LINE
  5
16C
100
AcDbEntity
  8
5
  6
CONTINUOUS
 62
       179
100
AcDbLine
 10
263.073822
 20
131.779343
 30
0.0
 11
257.166168
 21
137.687012
 31
0.0
  0
LINE
  5
16D
100
AcDbEntity
  8
5
  6
CONTINUOUS
 62
       179
100
AcDbLine
 10
259.994568
 20
137.687012
 30
0.0
 11
263.073822
 21
134.607773
 31
0.0
  0
LINE
  5
16E
100
AcDbEntity
  8
5
  6
CONTINUOUS
 62
       179
100
AcDbLine
 10
263.073822
 20
137.436188
 30
0.0
 11
262.822998
 21
137.687012
 31
0.0
  0
ENDBLK
  5
16F
100
AcDbEntity
  8
0
100
AcDbBlockEnd
  0
BLOCK
  5
171
100
AcDbEntity
  8
0
 62
         0
100
AcDbBlockBegin
  2
MEDCLUMP_CRH_248_
 70
         0
 10
0.0
 20
0.0
 30
0.0
  3
MEDCLUMP_CRH_248_
  1

  0
LINE
  5
172
100
AcDbEntity
  8
5
  6
CONTINUOUS
 62
       179
100
AcDbLine
 10
251.073822
 20
95.696075
 30
0.0
 11
252.082886
 21
94.687012
 31
0.0
  0
LINE
  5
173
100
AcDbEntity
  8
5
  6
CONTINUOUS
 62
       179
100
AcDbLine
 10
254.911316
 20
94.687012
 30
0.0
 11
251.073822
 21
98.524506
 31
0.0
  0
LINE
  5
174
100
AcDbEntity
  8
5
  6
CONTINUOUS
 62
       179
100
AcDbLine
 10
251.073822
 20
101.352928
 30
0.0
 11
257.739746
 21
94.687012
 31
0.0
  0
LINE
  5
175
100
AcDbEntity
  8
5
  6
CONTINUOUS
 62
       179
100
AcDbLine
 10
260.568176
 20
94.687012
 30
0.0
 11
251.073822
 21
104.181358
 31
0.0
  0
LINE
  5
176
100
AcDbEntity
  8
5
  6
CONTINUOUS
 62
       179
100
AcDbLine
 10
251.073822
 20
107.009781
 30
0.0
 11
263.073822
 21
95.009781
 31
0.0
  0
LINE
  5
177
100
AcDbEntity
  8
5
  6
CONTINUOUS
 62
       179
100
AcDbLine
 10
263.073822
 20
97.838211
 30
0.0
 11
251.073822
 21
109.838211
 31
0.0
  0
LINE
  5
178
100
AcDbEntity
  8
5
  6
CONTINUOUS
 62
       179
100
AcDbLine
 10
251.073822
 20
112.666641
 30
0.0
 11
263.073822
 21
100.666641
 31
0.0
  0
LINE
  5
179
100
AcDbEntity
  8
5
  6
CONTINUOUS
 62
       179
100
AcDbLine
 10
263.073822
 20
103.495064
 30
0.0
 11
252.381836
 21
114.187057
 31
0.0
  0
LINE
  5
17A
100
AcDbEntity
  8
5
  6
CONTINUOUS
 62
       179
100
AcDbLine
 10
256.210266
 20
113.187057
 30
0.0
 11
263.073822
 21
106.323494
 31
0.0
  0
LINE
  5
17B
100
AcDbEntity
  8
5
  6
CONTINUOUS
 62
       179
100
AcDbLine
 10
263.073822
 20
109.151917
 30
0.0
 11
259.038696
 21
113.187057
 31
0.0
  0
LINE
  5
17C
100
AcDbEntity
  8
5
  6
CONTINUOUS
 62
       179
100
AcDbLine
 10
261.867126
 20
113.187057
 30
0.0
 11
263.073822
 21
111.980354
 31
0.0
  0
ENDBLK
  5
17D
100
AcDbEntity
  8
0
100
AcDbBlockEnd
  0
BLOCK
  5
17F
100
AcDbEntity
  8
0
 62
         0
100
AcDbBlockBegin
  2
MEDCLUMP_SET_261_
 70
         0
 10
0.0
 20
0.0
 30
0.0
  3
MEDCLUMP_SET_261_
  1

  0
LINE
  5
180
100
AcDbEntity
  8
11
  6
CONTINUOUS
 62
         3
100
AcDbLine
 10
263.073822
 20
107.687057
 30
0.0
 11
263.073822
 21
109.687057
 31
0.0
  0
LINE
  5
181
100
AcDbEntity
  8
11
  6
CONTINUOUS
 62
         3
100
AcDbLine
 10
263.073822
 20
109.687057
 30
0.0
 11
264.073822
 21
109.687057
 31
0.0
  0
LINE
  5
182
100
AcDbEntity
  8
11
  6
CONTINUOUS
 62
         3
100
AcDbLine
 10
264.073822
 20
109.687057
 30
0.0
 11
264.073822
 21
113.187057
 31
0.0
  0
LINE
  5
183
100
AcDbEntity
  8
11
  6
CONTINUOUS
 62
         3
100
AcDbLine
 10
264.073822
 20
118.187057
 30
0.0
 11
264.073822
 21
120.187027
 31
0.0
  0
LINE
  5
184
100
AcDbEntity
  8
11
  6
CONTINUOUS
 62
         3
100
AcDbLine
 10
264.073822
 20
120.187027
 30
0.0
 11
268.073822
 21
120.187027
 31
0.0
  0
LINE
  5
185
100
AcDbEntity
  8
11
  6
CONTINUOUS
 62
         3
100
AcDbLine
 10
268.073822
 20
120.187027
 30
0.0
 11
268.073822
 21
125.687057
 31
0.0
  0
LINE
  5
186
100
AcDbEntity
  8
11
  6
CONTINUOUS
 62
         3
100
AcDbLine
 10
268.073822
 20
125.687057
 30
0.0
 11
271.073822
 21
125.687057
 31
0.0
  0
LINE
  5
187
100
AcDbEntity
  8
11
  6
CONTINUOUS
 62
         3
100
AcDbLine
 10
271.073822
 20
125.687057
 30
0.0
 11
271.073822
 21
107.687057
 31
0.0
  0
LINE
  5
188
100
AcDbEntity
  8
11
  6
CONTINUOUS
 62
         3
100
AcDbLine
 10
271.073822
 20
107.687057
 30
0.0
 11
263.073822
 21
107.687057
 31
0.0
  0
LINE
  5
189
100
AcDbEntity
  8
11
  6
CONTINUOUS
 62
         3
100
AcDbLine
 10
268.073822
 20
113.187057
 30
0.0
 11
268.073822
 21
118.187057
 31
0.0
  0
LINE
  5
18A
100
AcDbEntity
  8
11
  6
CONTINUOUS
 62
         3
100
AcDbLine
 10
264.073822
 20
118.687057
 30
0.0
 11
271.073822
 21
118.687057
 31
0.0
  0
LINE
  5
18B
100
AcDbEntity
  8
11
  6
CONTINUOUS
 62
         3
100
AcDbLine
 10
264.073822
 20
112.687057
 30
0.0
 11
271.073822
 21
112.687057
 31
0.0
  0
LINE
  5
18C
100
AcDbEntity
  8
11
  6
CONTINUOUS
 62
         3
100
AcDbLine
 10
271.073822
 20
113.187057
 30
0.0
 11
254.073822
 21
113.187057
 31
0.0
  0
LINE
  5
18D
100
AcDbEntity
  8
11
  6
CONTINUOUS
 62
         3
100
AcDbLine
 10
254.073822
 20
113.187057
 30
0.0
 11
253.073822
 21
114.187057
 31
0.0
  0
LINE
  5
18E
100
AcDbEntity
  8
11
  6
CONTINUOUS
 62
         3
100
AcDbLine
 10
253.073822
 20
114.187057
 30
0.0
 11
253.073822
 21
117.187057
 31
0.0
  0
LINE
  5
18F
100
AcDbEntity
  8
11
  6
CONTINUOUS
 62
         3
100
AcDbLine
 10
253.073822
 20
117.187057
 30
0.0
 11
254.073822
 21
118.187057
 31
0.0
  0
LINE
  5
190
100
AcDbEntity
  8
11
  6
CONTINUOUS
 62
         3
100
AcDbLine
 10
254.073822
 20
118.187057
 30
0.0
 11
271.073822
 21
118.187057
 31
0.0
  0
LINE
  5
191
100
AcDbEntity
  8
11
  6
CONTINUOUS
 62
         3
100
AcDbLine
 10
254.073822
 20
113.187057
 30
0.0
 11
254.073822
 21
118.187057
 31
0.0
  0
LINE
  5
192
100
AcDbEntity
  8
11
  6
CONTINUOUS
 62
         3
100
AcDbLine
 10
251.073822
 20
117.187057
 30
0.0
 11
253.073822
 21
117.187057
 31
0.0
  0
LINE
  5
193
100
AcDbEntity
  8
11
  6
CONTINUOUS
 62
         3
100
AcDbLine
 10
251.073822
 20
114.187057
 30
0.0
 11
253.073822
 21
114.187057
 31
0.0
  0
LINE
  5
194
100
AcDbEntity
  8
11
  6
CONTINUOUS
 62
         3
100
AcDbLine
 10
271.073822
 20
110.687057
 30
0.0
 11
272.073822
 21
110.687057
 31
0.0
  0
LINE
  5
195
100
AcDbEntity
  8
11
  6
CONTINUOUS
 62
         3
100
AcDbLine
 10
272.073822
 20
110.687057
 30
0.0
 11
272.073822
 21
120.687057
 31
0.0
  0
LINE
  5
196
100
AcDbEntity
  8
11
  6
CONTINUOUS
 62
         3
100
AcDbLine
 10
272.073822
 20
120.687057
 30
0.0
 11
271.073822
 21
120.687057
 31
0.0
  0
LINE
  5
197
100
AcDbEntity
  8
11
  6
CONTINUOUS
 62
         3
100
AcDbLine
 10
272.073822
 20
120.187057
 30
0.0
 11
278.073822
 21
120.187057
 31
0.0
  0
LINE
  5
198
100
AcDbEntity
  8
11
  6
CONTINUOUS
 62
         3
100
AcDbLine
 10
278.073822
 20
120.187057
 30
0.0
 11
278.073822
 21
111.187057
 31
0.0
  0
LINE
  5
199
100
AcDbEntity
  8
11
  6
CONTINUOUS
 62
         3
100
AcDbLine
 10
278.073822
 20
111.187057
 30
0.0
 11
272.073822
 21
111.187057
 31
0.0
  0
LINE
  5
19A
100
AcDbEntity
  8
11
  6
CONTINUOUS
 62
         3
100
AcDbLine
 10
268.073822
 20
125.687057
 30
0.0
 11
268.073822
 21
140.832977
 31
0.0
  0
LINE
  5
19B
100
AcDbEntity
  8
11
  6
CENTERX2
 62
         1
100
AcDbLine
 10
242.760498
 20
115.687057
 30
0.0
 11
279.981354
 21
115.687057
 31
0.0
  0
LINE
  5
19C
100
AcDbEntity
  8
11
  6
CENTERX2
 62
         1
100
AcDbLine
 10
244.048645
 20
94.687012
 30
0.0
 11
268.348053
 21
94.687012
 31
0.0
  0
ENDBLK
  5
19D
100
AcDbEntity
  8
0
100
AcDbBlockEnd
  0
BLOCK
  5
19F
100
AcDbEntity
  8
0
 62
         0
100
AcDbBlockBegin
  2
MEDCLUMP_CRH_277_
 70
         0
 10
0.0
 20
0.0
 30
0.0
  3
MEDCLUMP_CRH_277_
  1

  0
LINE
  5
1A0
100
AcDbEntity
  8
5
  6
CONTINUOUS
 62
       179
100
AcDbLine
 10
270.578217
 20
118.687057
 30
0.0
 11
271.073822
 21
119.182686
 31
0.0
  0
LINE
  5
1A1
100
AcDbEntity
  8
5
  6
CONTINUOUS
 62
       179
100
AcDbLine
 10
269.164001
 20
118.687057
 30
0.0
 11
271.073822
 21
120.596901
 31
0.0
  0
LINE
  5
1A2
100
AcDbEntity
  8
5
  6
CONTINUOUS
 62
       179
100
AcDbLine
 10
267.749786
 20
118.687057
 30
0.0
 11
271.073822
 21
122.011116
 31
0.0
  0
LINE
  5
1A3
100
AcDbEntity
  8
5
  6
CONTINUOUS
 62
       179
100
AcDbLine
 10
266.335571
 20
118.687057
 30
0.0
 11
267.835541
 21
120.187027
 31
0.0
  0
LINE
  5
1A4
100
AcDbEntity
  8
5
  6
CONTINUOUS
 62
       179
100
AcDbLine
 10
268.073822
 20
120.425323
 30
0.0
 11
271.073822
 21
123.425323
 31
0.0
  0
LINE
  5
1A5
100
AcDbEntity
  8
5
  6
CONTINUOUS
 62
       179
100
AcDbLine
 10
268.073822
 20
121.839539
 30
0.0
 11
271.073822
 21
124.839539
 31
0.0
  0
LINE
  5
1A6
100
AcDbEntity
  8
5
  6
CONTINUOUS
 62
       179
100
AcDbLine
 10
264.921356
 20
118.687057
 30
0.0
 11
266.421326
 21
120.187027
 31
0.0
  0
LINE
  5
1A7
100
AcDbEntity
  8
5
  6
CONTINUOUS
 62
       179
100
AcDbLine
 10
264.073822
 20
119.253754
 30
0.0
 11
265.007111
 21
120.187027
 31
0.0
  0
LINE
  5
1A8
100
AcDbEntity
  8
5
  6
CONTINUOUS
 62
       179
100
AcDbLine
 10
268.073822
 20
123.253754
 30
0.0
 11
270.507141
 21
125.687057
 31
0.0
  0
LINE
  5
1A9
100
AcDbEntity
  8
5
  6
CONTINUOUS
 62
       179
100
AcDbLine
 10
268.073822
 20
124.667969
 30
0.0
 11
269.092926
 21
125.687057
 31
0.0
  0
ENDBLK
  5
1AA
100
AcDbEntity
  8
0
100
AcDbBlockEnd
  0
BLOCK
  5
1AC
100
AcDbEntity
  8
0
 62
         0
100
AcDbBlockBegin
  2
MEDCLUMP_CRH_285_
 70
         0
 10
0.0
 20
0.0
 30
0.0
  3
MEDCLUMP_CRH_285_
  1

  0
LINE
  5
1AD
100
AcDbEntity
  8
5
  6
CONTINUOUS
 62
       179
100
AcDbLine
 10
270.891907
 20
107.687057
 30
0.0
 11
271.073822
 21
107.86898
 31
0.0
  0
LINE
  5
1AE
100
AcDbEntity
  8
5
  6
CONTINUOUS
 62
       179
100
AcDbLine
 10
269.477692
 20
107.687057
 30
0.0
 11
271.073822
 21
109.283188
 31
0.0
  0
LINE
  5
1AF
100
AcDbEntity
  8
5
  6
CONTINUOUS
 62
       179
100
AcDbLine
 10
268.063477
 20
107.687057
 30
0.0
 11
271.073822
 21
110.697403
 31
0.0
  0
LINE
  5
1B0
100
AcDbEntity
  8
5
  6
CONTINUOUS
 62
       179
100
AcDbLine
 10
266.649261
 20
107.687057
 30
0.0
 11
271.073822
 21
112.111618
 31
0.0
  0
LINE
  5
1B1
100
AcDbEntity
  8
5
  6
CONTINUOUS
 62
       179
100
AcDbLine
 10
265.235046
 20
107.687057
 30
0.0
 11
270.235046
 21
112.687057
 31
0.0
  0
LINE
  5
1B2
100
AcDbEntity
  8
5
  6
CONTINUOUS
 62
       179
100
AcDbLine
 10
263.820831
 20
107.687057
 30
0.0
 11
268.820831
 21
112.687057
 31
0.0
  0
LINE
  5
1B3
100
AcDbEntity
  8
5
  6
CONTINUOUS
 62
       179
100
AcDbLine
 10
263.073822
 20
108.354256
 30
0.0
 11
267.406616
 21
112.687057
 31
0.0
  0
LINE
  5
1B4
100
AcDbEntity
  8
5
  6
CONTINUOUS
 62
       179
100
AcDbLine
 10
264.073822
 20
110.768471
 30
0.0
 11
265.992401
 21
112.687057
 31
0.0
  0
LINE
  5
1B5
100
AcDbEntity
  8
5
  6
CONTINUOUS
 62
       179
100
AcDbLine
 10
264.073822
 20
112.182686
 30
0.0
 11
264.578217
 21
112.687057
 31
0.0
  0
ENDBLK
  5
1B6
100
AcDbEntity
  8
0
100
AcDbBlockEnd
  0
BLOCK
  5
1B8
100
AcDbEntity
  8
0
 62
         0
100
AcDbBlockBegin
  2
MEDCLUMP_SET_299_
 70
         0
 10
0.0
 20
0.0
 30
0.0
  3
MEDCLUMP_SET_299_
  1

  0
LINE
  5
1B9
100
AcDbEntity
  8
11
  6
CONTINUOUS
 62
         3
100
AcDbLine
 10
351.073822
 20
163.187057
 30
0.0
 11
351.073822
 21
124.187057
 31
0.0
  0
LINE
  5
1BA
100
AcDbEntity
  8
11
  6
CONTINUOUS
 62
         3
100
AcDbLine
 10
351.073822
 20
124.187057
 30
0.0
 11
345.073822
 21
124.187057
 31
0.0
  0
LINE
  5
1BB
100
AcDbEntity
  8
11
  6
CONTINUOUS
 62
         3
100
AcDbLine
 10
345.073822
 20
124.187057
 30
0.0
 11
341.609711
 21
122.187057
 31
0.0
  0
LINE
  5
1BC
100
AcDbEntity
  8
11
  6
CONTINUOUS
 62
         3
100
AcDbLine
 10
341.609711
 20
122.187057
 30
0.0
 11
273.073822
 21
122.187057
 31
0.0
  0
LINE
  5
1BD
100
AcDbEntity
  8
11
  6
CONTINUOUS
 62
         3
100
AcDbLine
 10
273.073822
 20
122.187057
 30
0.0
 11
273.073822
 21
125.687057
 31
0.0
  0
LINE
  5
1BE
100
AcDbEntity
  8
11
  6
CONTINUOUS
 62
         3
100
AcDbLine
 10
273.073822
 20
125.687057
 30
0.0
 11
268.073822
 21
125.687057
 31
0.0
  0
LINE
  5
1BF
100
AcDbEntity
  8
11
  6
CONTINUOUS
 62
         3
100
AcDbLine
 10
268.073822
 20
125.687057
 30
0.0
 11
268.073822
 21
122.187057
 31
0.0
  0
LINE
  5
1C0
100
AcDbEntity
  8
11
  6
CONTINUOUS
 62
         3
100
AcDbLine
 10
268.073822
 20
122.187057
 30
0.0
 11
263.073822
 21
122.187057
 31
0.0
  0
LINE
  5
1C1
100
AcDbEntity
  8
11
  6
CONTINUOUS
 62
         3
100
AcDbLine
 10
263.073822
 20
122.187057
 30
0.0
 11
263.073822
 21
138.187057
 31
0.0
  0
LINE
  5
1C2
100
AcDbEntity
  8
11
  6
CONTINUOUS
 62
         3
100
AcDbLine
 10
263.073822
 20
138.187057
 30
0.0
 11
260.073822
 21
138.187057
 31
0.0
  0
LINE
  5
1C3
100
AcDbEntity
  8
11
  6
CONTINUOUS
 62
         3
100
AcDbLine
 10
260.073822
 20
138.187057
 30
0.0
 11
260.073822
 21
188.187057
 31
0.0
  0
LINE
  5
1C4
100
AcDbEntity
  8
11
  6
CONTINUOUS
 62
         3
100
AcDbLine
 10
260.073822
 20
188.187057
 30
0.0
 11
263.073822
 21
188.187057
 31
0.0
  0
LINE
  5
1C5
100
AcDbEntity
  8
11
  6
CONTINUOUS
 62
         3
100
AcDbLine
 10
263.073822
 20
188.187057
 30
0.0
 11
263.073822
 21
204.187057
 31
0.0
  0
LINE
  5
1C6
100
AcDbEntity
  8
11
  6
CONTINUOUS
 62
         3
100
AcDbLine
 10
263.073822
 20
204.187057
 30
0.0
 11
268.073822
 21
204.187057
 31
0.0
  0
LINE
  5
1C7
100
AcDbEntity
  8
11
  6
CONTINUOUS
 62
         3
100
AcDbLine
 10
268.073822
 20
204.187057
 30
0.0
 11
268.073822
 21
200.687057
 31
0.0
  0
LINE
  5
1C8
100
AcDbEntity
  8
11
  6
CONTINUOUS
 62
         3
100
AcDbLine
 10
268.073822
 20
200.687057
 30
0.0
 11
273.073822
 21
200.687057
 31
0.0
  0
LINE
  5
1C9
100
AcDbEntity
  8
11
  6
CONTINUOUS
 62
         3
100
AcDbLine
 10
273.073822
 20
200.687057
 30
0.0
 11
273.073822
 21
204.187057
 31
0.0
  0
LINE
  5
1CA
100
AcDbEntity
  8
11
  6
CONTINUOUS
 62
         3
100
AcDbLine
 10
273.073822
 20
204.187057
 30
0.0
 11
341.609711
 21
204.187057
 31
0.0
  0
LINE
  5
1CB
100
AcDbEntity
  8
11
  6
CONTINUOUS
 62
         3
100
AcDbLine
 10
341.609711
 20
204.187057
 30
0.0
 11
345.073822
 21
202.187057
 31
0.0
  0
LINE
  5
1CC
100
AcDbEntity
  8
11
  6
CONTINUOUS
 62
         3
100
AcDbLine
 10
345.073822
 20
202.187057
 30
0.0
 11
351.073822
 21
202.187057
 31
0.0
  0
LINE
  5
1CD
100
AcDbEntity
  8
11
  6
CONTINUOUS
 62
         3
100
AcDbLine
 10
351.073822
 20
202.187057
 30
0.0
 11
351.073822
 21
163.187057
 31
0.0
  0
LINE
  5
1CE
100
AcDbEntity
  8
11
  6
CONTINUOUS
 62
         3
100
AcDbLine
 10
351.073822
 20
163.187057
 30
0.0
 11
351.073822
 21
124.187057
 31
0.0
  0
LINE
  5
1CF
100
AcDbEntity
  8
11
  6
CONTINUOUS
 62
         3
100
AcDbLine
 10
351.073822
 20
124.187057
 30
0.0
 11
345.073822
 21
124.187057
 31
0.0
  0
LINE
  5
1D0
100
AcDbEntity
  8
11
  6
CONTINUOUS
 62
         3
100
AcDbLine
 10
345.073822
 20
124.187057
 30
0.0
 11
345.073822
 21
202.187057
 31
0.0
  0
LINE
  5
1D1
100
AcDbEntity
  8
11
  6
CONTINUOUS
 62
         3
100
AcDbLine
 10
260.073822
 20
158.187057
 30
0.0
 11
241.073822
 21
158.187057
 31
0.0
  0
LINE
  5
1D2
100
AcDbEntity
  8
11
  6
CONTINUOUS
 62
         3
100
AcDbLine
 10
241.073822
 20
158.187057
 30
0.0
 11
240.073822
 21
159.187057
 31
0.0
  0
LINE
  5
1D3
100
AcDbEntity
  8
11
  6
CONTINUOUS
 62
         3
100
AcDbLine
 10
240.073822
 20
159.187057
 30
0.0
 11
240.073822
 21
167.187057
 31
0.0
  0
LINE
  5
1D4
100
AcDbEntity
  8
11
  6
CONTINUOUS
 62
         3
100
AcDbLine
 10
240.073822
 20
167.187057
 30
0.0
 11
241.073822
 21
168.187057
 31
0.0
  0
LINE
  5
1D5
100
AcDbEntity
  8
11
  6
CONTINUOUS
 62
         3
100
AcDbLine
 10
241.073822
 20
168.187057
 30
0.0
 11
250.87381
 21
168.187057
 31
0.0
  0
LINE
  5
1D6
100
AcDbEntity
  8
11
  6
CONTINUOUS
 62
         3
100
AcDbLine
 10
250.87381
 20
168.187057
 30
0.0
 11
250.87381
 21
166.687057
 31
0.0
  0
LINE
  5
1D7
100
AcDbEntity
  8
11
  6
CONTINUOUS
 62
         3
100
AcDbLine
 10
250.87381
 20
166.687057
 30
0.0
 11
253.87381
 21
164.955017
 31
0.0
  0
LINE
  5
1D8
100
AcDbEntity
  8
11
  6
CONTINUOUS
 62
         3
100
AcDbLine
 10
253.87381
 20
164.955017
 30
0.0
 11
256.87381
 21
166.687057
 31
0.0
  0
LINE
  5
1D9
100
AcDbEntity
  8
11
  6
CONTINUOUS
 62
         3
100
AcDbLine
 10
256.87381
 20
166.687057
 30
0.0
 11
256.87381
 21
168.187057
 31
0.0
  0
LINE
  5
1DA
100
AcDbEntity
  8
11
  6
CONTINUOUS
 62
         3
100
AcDbLine
 10
256.87381
 20
168.187057
 30
0.0
 11
260.073822
 21
168.187057
 31
0.0
  0
LINE
  5
1DB
100
AcDbEntity
  8
11
  6
CONTINUOUS
 62
         3
100
AcDbLine
 10
250.87381
 20
166.687057
 30
0.0
 11
256.87381
 21
166.687057
 31
0.0
  0
LINE
  5
1DC
100
AcDbEntity
  8
11
  6
CONTINUOUS
 62
         3
100
AcDbLine
 10
241.073822
 20
158.187057
 30
0.0
 11
241.073822
 21
168.187057
 31
0.0
  0
LINE
  5
1DD
100
AcDbEntity
  8
11
  6
CONTINUOUS
 62
         3
100
AcDbLine
 10
273.073822
 20
125.687057
 30
0.0
 11
273.073822
 21
200.687057
 31
0.0
  0
LINE
  5
1DE
100
AcDbEntity
  8
11
  6
CONTINUOUS
 62
         3
100
AcDbLine
 10
268.073822
 20
125.687057
 30
0.0
 11
268.073822
 21
200.687057
 31
0.0
  0
LINE
  5
1DF
100
AcDbEntity
  8
11
  6
CONTINUOUS
 62
         3
100
AcDbLine
 10
263.073822
 20
138.187057
 30
0.0
 11
263.073822
 21
188.187057
 31
0.0
  0
ARC
  5
1E0
100
AcDbEntity
  8
11
  6
CONTINUOUS
 62
         3
100
AcDbCircle
 10
253.87381
 20
175.0450570233
 30
0.0
 40
7.5000050233
100
AcDbArc
 50
246.42183827
 51
293.57816173
  0
ENDBLK
  5
1E1
100
AcDbEntity
  8
0
100
AcDbBlockEnd
  0
BLOCK
  5
1E3
100
AcDbEntity
  8
0
 62
         0
100
AcDbBlockBegin
  2
MEDCLUMP_SET_308_
 70
         0
 10
0.0
 20
0.0
 30
0.0
  3
MEDCLUMP_SET_308_
  1

  0
LINE
  5
1E4
100
AcDbEntity
  8
11
  6
CONTINUOUS
 62
         3
100
AcDbLine
 10
35.679569
 20
198.187057
 30
0.0
 11
36.072639
 21
200.130295
 31
0.0
  0
LINE
  5
1E5
100
AcDbEntity
  8
11
  6
CONTINUOUS
 62
         3
100
AcDbLine
 10
40.679569
 20
193.187065
 30
0.0
 11
62.679577
 21
193.187065
 31
0.0
  0
LINE
  5
1E6
100
AcDbEntity
  8
11
  6
CONTINUOUS
 62
         3
100
AcDbLine
 10
67.679577
 20
198.187057
 30
0.0
 11
67.368858
 21
199.922165
 31
0.0
  0
LINE
  5
1E7
100
AcDbEntity
  8
11
  6
CONTINUOUS
 62
         3
100
AcDbLine
 10
46.679569
 20
193.187057
 30
0.0
 11
46.679569
 21
203.187057
 31
0.0
  0
LINE
  5
1E8
100
AcDbEntity
  8
11
  6
CONTINUOUS
 62
         3
100
AcDbLine
 10
56.679569
 20
193.187057
 30
0.0
 11
56.679569
 21
203.187057
 31
0.0
  0
LINE
  5
1E9
100
AcDbEntity
  8
11
  6
CONTINUOUS
 62
         3
100
AcDbLine
 10
59.972462
 20
196.894165
 30
0.0
 11
63.972462
 21
200.894165
 31
0.0
  0
LINE
  5
1EA
100
AcDbEntity
  8
11
  6
CONTINUOUS
 62
         3
100
AcDbLine
 10
61.386677
 20
195.47995
 30
0.0
 11
65.386681
 21
199.47995
 31
0.0
  0
LINE
  5
1EB
100
AcDbEntity
  8
11
  6
CONTINUOUS
 62
         3
100
AcDbLine
 10
91.679573
 20
173.187057
 30
0.0
 11
91.679573
 21
178.187057
 31
0.0
  0
LINE
  5
1EC
100
AcDbEntity
  8
11
  6
CONTINUOUS
 62
         3
100
AcDbLine
 10
91.679573
 20
178.187057
 30
0.0
 11
92.679573
 21
179.187057
 31
0.0
  0
LINE
  5
1ED
100
AcDbEntity
  8
11
  6
CONTINUOUS
 62
         3
100
AcDbLine
 10
92.679573
 20
179.187057
 30
0.0
 11
103.679573
 21
179.187057
 31
0.0
  0
LINE
  5
1EE
100
AcDbEntity
  8
11
  6
CONTINUOUS
 62
         3
100
AcDbLine
 10
103.679573
 20
179.187057
 30
0.0
 11
104.679573
 21
178.187057
 31
0.0
  0
LINE
  5
1EF
100
AcDbEntity
  8
11
  6
CONTINUOUS
 62
         3
100
AcDbLine
 10
104.679573
 20
178.187057
 30
0.0
 11
104.679573
 21
148.187057
 31
0.0
  0
LINE
  5
1F0
100
AcDbEntity
  8
11
  6
CONTINUOUS
 62
         3
100
AcDbLine
 10
104.679573
 20
148.187057
 30
0.0
 11
103.679573
 21
147.187057
 31
0.0
  0
LINE
  5
1F1
100
AcDbEntity
  8
11
  6
CONTINUOUS
 62
         3
100
AcDbLine
 10
103.679573
 20
147.187057
 30
0.0
 11
92.679573
 21
147.187057
 31
0.0
  0
LINE
  5
1F2
100
AcDbEntity
  8
11
  6
CONTINUOUS
 62
         3
100
AcDbLine
 10
92.679573
 20
147.187057
 30
0.0
 11
91.679573
 21
148.187057
 31
0.0
  0
LINE
  5
1F3
100
AcDbEntity
  8
11
  6
CONTINUOUS
 62
         3
100
AcDbLine
 10
91.679573
 20
148.187057
 30
0.0
 11
91.679573
 21
153.187057
 31
0.0
  0
LINE
  5
1F4
100
AcDbEntity
  8
11
  6
CONTINUOUS
 62
         3
100
AcDbLine
 10
92.679573
 20
147.187057
 30
0.0
 11
92.679573
 21
179.187057
 31
0.0
  0
LINE
  5
1F5
100
AcDbEntity
  8
11
  6
CONTINUOUS
 62
         3
100
AcDbLine
 10
103.679573
 20
147.187057
 30
0.0
 11
103.679573
 21
179.187057
 31
0.0
  0
LINE
  5
1F6
100
AcDbEntity
  8
11
  6
CONTINUOUS
 62
         3
100
AcDbLine
 10
86.679573
 20
176.187057
 30
0.0
 11
85.679573
 21
177.187057
 31
0.0
  0
LINE
  5
1F7
100
AcDbEntity
  8
11
  6
CONTINUOUS
 62
         3
100
AcDbLine
 10
85.679573
 20
177.187057
 30
0.0
 11
81.679573
 21
177.187057
 31
0.0
  0
LINE
  5
1F8
100
AcDbEntity
  8
11
  6
CONTINUOUS
 62
         3
100
AcDbLine
 10
81.679573
 20
177.187057
 30
0.0
 11
80.679573
 21
176.187057
 31
0.0
  0
LINE
  5
1F9
100
AcDbEntity
  8
11
  6
CONTINUOUS
 62
         3
100
AcDbLine
 10
80.679573
 20
176.187057
 30
0.0
 11
73.679573
 21
176.187057
 31
0.0
  0
LINE
  5
1FA
100
AcDbEntity
  8
11
  6
CONTINUOUS
 62
         3
100
AcDbLine
 10
73.679573
 20
176.187057
 30
0.0
 11
73.679573
 21
152.597046
 31
0.0
  0
LINE
  5
1FB
100
AcDbEntity
  8
11
  6
CONTINUOUS
 62
         3
100
AcDbLine
 10
73.679573
 20
152.597046
 30
0.0
 11
73.679573
 21
150.187057
 31
0.0
  0
LINE
  5
1FC
100
AcDbEntity
  8
11
  6
CONTINUOUS
 62
         3
100
AcDbLine
 10
73.679573
 20
150.187057
 30
0.0
 11
80.679573
 21
150.187057
 31
0.0
  0
LINE
  5
1FD
100
AcDbEntity
  8
11
  6
CONTINUOUS
 62
         3
100
AcDbLine
 10
80.679573
 20
150.187057
 30
0.0
 11
81.679573
 21
149.187057
 31
0.0
  0
LINE
  5
1FE
100
AcDbEntity
  8
11
  6
CONTINUOUS
 62
         3
100
AcDbLine
 10
81.679573
 20
149.187057
 30
0.0
 11
85.679573
 21
149.187057
 31
0.0
  0
LINE
  5
1FF
100
AcDbEntity
  8
11
  6
CONTINUOUS
 62
         3
100
AcDbLine
 10
85.679573
 20
149.187057
 30
0.0
 11
86.679573
 21
150.187057
 31
0.0
  0
LINE
  5
200
100
AcDbEntity
  8
11
  6
CONTINUOUS
 62
         3
100
AcDbLine
 10
86.679573
 20
150.187057
 30
0.0
 11
86.679573
 21
176.187057
 31
0.0
  0
LINE
  5
201
100
AcDbEntity
  8
11
  6
CONTINUOUS
 62
         3
100
AcDbLine
 10
85.679573
 20
149.187057
 30
0.0
 11
85.679573
 21
177.187057
 31
0.0
  0
LINE
  5
202
100
AcDbEntity
  8
11
  6
CONTINUOUS
 62
         3
100
AcDbLine
 10
81.679573
 20
149.187057
 30
0.0
 11
81.679573
 21
177.187057
 31
0.0
  0
LINE
  5
203
100
AcDbEntity
  8
11
  6
CONTINUOUS
 62
         3
100
AcDbLine
 10
80.679573
 20
150.187057
 30
0.0
 11
80.679573
 21
176.187057
 31
0.0
  0
LINE
  5
204
100
AcDbEntity
  8
11
  6
CONTINUOUS
 62
         3
100
AcDbLine
 10
61.679569
 20
171.187057
 30
0.0
 11
73.679573
 21
171.187057
 31
0.0
  0
LINE
  5
205
100
AcDbEntity
  8
11
  6
CONTINUOUS
 62
         3
100
AcDbLine
 10
59.679571
 20
173.187057
 30
0.0
 11
59.679571
 21
180.187057
 31
0.0
  0
LINE
  5
206
100
AcDbEntity
  8
11
  6
CONTINUOUS
 62
         3
100
AcDbLine
 10
59.679571
 20
180.187057
 30
0.0
 11
43.679569
 21
180.187057
 31
0.0
  0
LINE
  5
207
100
AcDbEntity
  8
11
  6
CONTINUOUS
 62
         3
100
AcDbLine
 10
43.679569
 20
180.187057
 30
0.0
 11
43.679569
 21
170.187057
 31
0.0
  0
LINE
  5
208
100
AcDbEntity
  8
11
  6
CONTINUOUS
 62
         3
100
AcDbLine
 10
58.679569
 20
155.187065
 30
0.0
 11
73.679573
 21
155.187065
 31
0.0
  0
LINE
  5
209
100
AcDbEntity
  8
11
  6
CONTINUOUS
 62
         3
100
AcDbLine
 10
67.679581
 20
191.187057
 30
0.0
 11
66.679573
 21
190.187057
 31
0.0
  0
LINE
  5
20A
100
AcDbEntity
  8
11
  6
CONTINUOUS
 62
         3
100
AcDbLine
 10
66.679573
 20
190.187057
 30
0.0
 11
66.679573
 21
180.187057
 31
0.0
  0
LINE
  5
20B
100
AcDbEntity
  8
11
  6
CONTINUOUS
 62
         3
100
AcDbLine
 10
66.679573
 20
180.187057
 30
0.0
 11
43.679569
 21
180.187057
 31
0.0
  0
LINE
  5
20C
100
AcDbEntity
  8
11
  6
CONTINUOUS
 62
         3
100
AcDbLine
 10
43.679569
 20
180.187057
 30
0.0
 11
36.679569
 21
180.187057
 31
0.0
  0
LINE
  5
20D
100
AcDbEntity
  8
11
  6
CONTINUOUS
 62
         3
100
AcDbLine
 10
36.679569
 20
180.187057
 30
0.0
 11
36.679569
 21
190.187057
 31
0.0
  0
LINE
  5
20E
100
AcDbEntity
  8
11
  6
CONTINUOUS
 62
         3
100
AcDbLine
 10
36.679569
 20
190.187057
 30
0.0
 11
35.679569
 21
191.187057
 31
0.0
  0
LINE
  5
20F
100
AcDbEntity
  8
11
  6
CONTINUOUS
 62
         3
100
AcDbLine
 10
35.679569
 20
191.187057
 30
0.0
 11
35.679569
 21
198.187057
 31
0.0
  0
LINE
  5
210
100
AcDbEntity
  8
11
  6
CONTINUOUS
 62
         3
100
AcDbLine
 10
40.679569
 20
203.18705
 30
0.0
 11
62.679569
 21
203.18705
 31
0.0
  0
LINE
  5
211
100
AcDbEntity
  8
11
  6
CONTINUOUS
 62
         3
100
AcDbLine
 10
67.679581
 20
191.187057
 30
0.0
 11
67.679577
 21
198.187057
 31
0.0
  0
LINE
  5
212
100
AcDbEntity
  8
11
  6
CONTINUOUS
 62
         3
100
AcDbLine
 10
58.679569
 20
203.187057
 30
0.0
 11
58.679569
 21
229.187057
 31
0.0
  0
LINE
  5
213
100
AcDbEntity
  8
11
  6
CONTINUOUS
 62
         3
100
AcDbLine
 10
58.679569
 20
229.187057
 30
0.0
 11
44.679569
 21
229.187057
 31
0.0
  0
LINE
  5
214
100
AcDbEntity
  8
11
  6
CONTINUOUS
 62
         3
100
AcDbLine
 10
44.679569
 20
229.187057
 30
0.0
 11
44.679569
 21
203.187057
 31
0.0
  0
LINE
  5
215
100
AcDbEntity
  8
11
  6
CONTINUOUS
 62
         3
100
AcDbLine
 10
38.679569
 20
180.187057
 30
0.0
 11
38.679569
 21
191.187057
 31
0.0
  0
LINE
  5
216
100
AcDbEntity
  8
11
  6
CONTINUOUS
 62
         3
100
AcDbLine
 10
38.679569
 20
191.187057
 30
0.0
 11
44.679569
 21
191.187057
 31
0.0
  0
LINE
  5
217
100
AcDbEntity
  8
11
  6
CONTINUOUS
 62
         3
100
AcDbLine
 10
44.679569
 20
191.187057
 30
0.0
 11
44.679569
 21
180.187057
 31
0.0
  0
LINE
  5
218
100
AcDbEntity
  8
11
  6
CONTINUOUS
 62
         3
100
AcDbLine
 10
46.679569
 20
180.187057
 30
0.0
 11
46.679569
 21
191.187057
 31
0.0
  0
LINE
  5
219
100
AcDbEntity
  8
11
  6
CONTINUOUS
 62
         3
100
AcDbLine
 10
46.679569
 20
191.187057
 30
0.0
 11
56.679569
 21
191.187057
 31
0.0
  0
LINE
  5
21A
100
AcDbEntity
  8
11
  6
CONTINUOUS
 62
         3
100
AcDbLine
 10
56.679569
 20
191.187057
 30
0.0
 11
56.679569
 21
180.187057
 31
0.0
  0
LINE
  5
21B
100
AcDbEntity
  8
11
  6
CONTINUOUS
 62
         3
100
AcDbLine
 10
58.679569
 20
180.187057
 30
0.0
 11
58.679569
 21
191.187057
 31
0.0
  0
LINE
  5
21C
100
AcDbEntity
  8
11
  6
CONTINUOUS
 62
         3
100
AcDbLine
 10
58.679569
 20
191.187057
 30
0.0
 11
64.679573
 21
191.187057
 31
0.0
  0
LINE
  5
21D
100
AcDbEntity
  8
11
  6
CONTINUOUS
 62
         3
100
AcDbLine
 10
64.679573
 20
191.187057
 30
0.0
 11
64.679573
 21
180.187057
 31
0.0
  0
LINE
  5
21E
100
AcDbEntity
  8
11
  6
CONTINUOUS
 62
         3
100
AcDbLine
 10
115.930397
 20
179.187057
 30
0.0
 11
113.679565
 21
179.187057
 31
0.0
  0
LINE
  5
21F
100
AcDbEntity
  8
11
  6
CONTINUOUS
 62
         3
100
AcDbLine
 10
113.679565
 20
179.187057
 30
0.0
 11
113.679565
 21
172.187057
 31
0.0
  0
LINE
  5
220
100
AcDbEntity
  8
11
  6
CONTINUOUS
 62
         3
100
AcDbLine
 10
113.679565
 20
154.187057
 30
0.0
 11
113.679565
 21
147.187057
 31
0.0
  0
LINE
  5
221
100
AcDbEntity
  8
11
  6
CONTINUOUS
 62
         3
100
AcDbLine
 10
113.679565
 20
147.187057
 30
0.0
 11
115.930397
 21
147.187057
 31
0.0
  0
LINE
  5
222
100
AcDbEntity
  8
11
  6
CONTINUOUS
 62
         3
100
AcDbLine
 10
111.679565
 20
172.687057
 30
0.0
 11
113.679565
 21
172.687057
 31
0.0
  0
LINE
  5
223
100
AcDbEntity
  8
11
  6
CONTINUOUS
 62
         3
100
AcDbLine
 10
111.679565
 20
178.687057
 30
0.0
 11
113.679565
 21
178.687057
 31
0.0
  0
LINE
  5
224
100
AcDbEntity
  8
11
  6
CONTINUOUS
 62
         3
100
AcDbLine
 10
104.679573
 20
176.687057
 30
0.0
 11
111.245583
 21
176.687057
 31
0.0
  0
LINE
  5
225
100
AcDbEntity
  8
11
  6
CONTINUOUS
 62
         3
100
AcDbLine
 10
104.679573
 20
149.687057
 30
0.0
 11
111.245583
 21
149.687057
 31
0.0
  0
LINE
  5
226
100
AcDbEntity
  8
11
  6
CONTINUOUS
 62
         3
100
AcDbLine
 10
111.679565
 20
147.687057
 30
0.0
 11
113.679565
 21
147.687057
 31
0.0
  0
LINE
  5
227
100
AcDbEntity
  8
11
  6
CONTINUOUS
 62
         3
100
AcDbLine
 10
111.679565
 20
153.687057
 30
0.0
 11
113.679565
 21
153.687057
 31
0.0
  0
LINE
  5
228
100
AcDbEntity
  8
11
  6
CONTINUOUS
 62
         3
100
AcDbLine
 10
111.679565
 20
153.687057
 30
0.0
 11
113.679565
 21
153.687057
 31
0.0
  0
LINE
  5
229
100
AcDbEntity
  8
11
  6
CONTINUOUS
 62
         3
100
AcDbLine
 10
86.679573
 20
172.187057
 30
0.0
 11
88.679573
 21
172.187057
 31
0.0
  0
LINE
  5
22A
100
AcDbEntity
  8
11
  6
CONTINUOUS
 62
         3
100
AcDbLine
 10
86.679573
 20
154.187057
 30
0.0
 11
88.679573
 21
154.187057
 31
0.0
  0
LINE
  5
22B
100
AcDbEntity
  8
11
  6
CONTINUOUS
 62
         3
100
AcDbLine
 10
91.679573
 20
163.187057
 30
0.0
 11
91.679573
 21
173.187057
 31
0.0
  0
LINE
  5
22C
100
AcDbEntity
  8
11
  6
CONTINUOUS
 62
         3
100
AcDbLine
 10
91.679573
 20
173.187057
 30
0.0
 11
88.679573
 21
173.187057
 31
0.0
  0
LINE
  5
22D
100
AcDbEntity
  8
11
  6
CONTINUOUS
 62
         3
100
AcDbLine
 10
88.679573
 20
173.187057
 30
0.0
 11
88.679573
 21
153.187057
 31
0.0
  0
LINE
  5
22E
100
AcDbEntity
  8
11
  6
CONTINUOUS
 62
         3
100
AcDbLine
 10
88.679573
 20
153.187057
 30
0.0
 11
91.679573
 21
153.187057
 31
0.0
  0
LINE
  5
22F
100
AcDbEntity
  8
11
  6
CONTINUOUS
 62
         3
100
AcDbLine
 10
91.679573
 20
153.187057
 30
0.0
 11
91.679573
 21
163.187057
 31
0.0
  0
LINE
  5
230
100
AcDbEntity
  8
11
  6
CENTERX2
 62
         1
100
AcDbLine
 10
46.203552
 20
163.187057
 30
0.0
 11
197.503403
 21
163.187057
 31
0.0
  0
LINE
  5
231
100
AcDbEntity
  8
11
  6
CENTERX2
 62
         1
100
AcDbLine
 10
110.448898
 20
175.687057
 30
0.0
 11
119.106125
 21
175.687057
 31
0.0
  0
LINE
  5
232
100
AcDbEntity
  8
11
  6
CENTERX2
 62
         1
100
AcDbLine
 10
110.421371
 20
150.687057
 30
0.0
 11
119.106125
 21
150.687057
 31
0.0
  0
LINE
  5
233
100
AcDbEntity
  8
11
  6
CENTERX2
 62
         1
100
AcDbLine
 10
51.679569
 20
159.994919
 30
0.0
 11
51.679569
 21
234.255768
 31
0.0
  0
LINE
  5
234
100
AcDbEntity
  8
11
  6
CENTERX2
 62
         1
100
AcDbLine
 10
37.518795
 20
198.187057
 30
0.0
 11
66.353294
 21
198.187057
 31
0.0
  0
LINE
  5
235
100
AcDbEntity
  8
11
  6
CENTERX2
 62
         1
100
AcDbLine
 10
40.679569
 20
195.429001
 30
0.0
 11
40.679569
 21
201.030731
 31
0.0
  0
LINE
  5
236
100
AcDbEntity
  8
11
  6
CENTERX2
 62
         1
100
AcDbLine
 10
62.679569
 20
195.422119
 30
0.0
 11
62.679569
 21
201.030731
 31
0.0
  0
ARC
  5
237
100
AcDbEntity
  8
11
  6
CONTINUOUS
 62
         3
100
AcDbCircle
 10
40.6795612646
 20
198.1870572646
 30
0.0
 40
4.9999922646
100
AcDbArc
 50
180.0
 51
270.0000886409
  0
ARC
  5
238
100
AcDbEntity
  8
11
  6
CONTINUOUS
 62
         3
100
AcDbCircle
 10
62.6795847354
 20
198.1870572646
 30
0.0
 40
4.9999922646
100
AcDbArc
 50
269.9999113591
 51
360.0
  0
CIRCLE
  5
239
100
AcDbEntity
  8
11
  6
CONTINUOUS
 62
         3
100
AcDbCircle
 10
40.6795612646
 20
198.1870572646
 30
0.0
 40
1.2500077354
  0
CIRCLE
  5
23A
100
AcDbEntity
  8
11
  6
CONTINUOUS
 62
         3
100
AcDbCircle
 10
62.679569
 20
198.187057
 30
0.0
 40
3.000004
  0
ARC
  5
23B
100
AcDbEntity
  8
11
  6
CONTINUOUS
 62
         3
100
AcDbCircle
 10
61.6795685058
 20
173.1870545059
 30
0.0
 40
1.9999975059
100
AcDbArc
 50
180.0
 51
270.0000141564
  0
ARC
  5
23C
100
AcDbEntity
  8
11
  6
CONTINUOUS
 62
         3
100
AcDbCircle
 10
58.6795537939
 20
170.1870497939
 30
0.0
 40
14.9999847939
100
AcDbArc
 50
180.0
 51
270.0000580832
  0
ARC
  5
23D
100
AcDbEntity
  8
11
  6
CONTINUOUS
 62
         3
100
AcDbCircle
 10
40.6795612646
 20
198.1870572646
 30
0.0
 40
4.9999927354
100
AcDbArc
 50
89.9999113591
 51
180.0248627387
  0
ARC
  5
23E
100
AcDbEntity
  8
11
  6
CONTINUOUS
 62
         3
100
AcDbCircle
 10
62.6795847354
 20
198.1870572646
 30
0.0
 40
4.9999927354
100
AcDbArc
 50
359.9751367657
 51
90.0001803143
  0
ARC
  5
23F
100
AcDbEntity
  8
11
  6
CONTINUOUS
 62
         3
100
AcDbCircle
 10
120.6795451333
 20
175.687057
 30
0.0
 40
9.4868141333
100
AcDbArc
 50
161.5650132344
 51
198.4349867656
  0
ARC
  5
240
100
AcDbEntity
  8
11
  6
CONTINUOUS
 62
         3
100
AcDbCircle
 10
120.6795451333
 20
150.687057
 30
0.0
 40
9.4868141333
100
AcDbArc
 50
161.5650132344
 51
198.4349867656
  0
ENDBLK
  5
241
100
AcDbEntity
  8
0
100
AcDbBlockEnd
  0
BLOCK
  5
243
100
AcDbEntity
  8
0
 62
         0
100
AcDbBlockBegin
  2
MEDCLUMP_CRH_346_
 70
         0
 10
0.0
 20
0.0
 30
0.0
  3
MEDCLUMP_CRH_346_
  1

  0
LINE
  5
244
100
AcDbEntity
  8
5
  6
CONTINUOUS
 62
       179
100
AcDbLine
 10
92.679573
 20
147.622147
 30
0.0
 11
100.679573
 21
147.622147
 31
0.0
  0
LINE
  5
245
100
AcDbEntity
  8
5
  6
CONTINUOUS
 62
       179
100
AcDbLine
 10
92.679573
 20
149.622147
 30
0.0
 11
100.679573
 21
149.622147
 31
0.0
  0
LINE
  5
246
100
AcDbEntity
  8
5
  6
CONTINUOUS
 62
       179
100
AcDbLine
 10
92.679573
 20
151.622147
 30
0.0
 11
100.679573
 21
151.622147
 31
0.0
  0
LINE
  5
247
100
AcDbEntity
  8
5
  6
CONTINUOUS
 62
       179
100
AcDbLine
 10
92.679573
 20
153.622147
 30
0.0
 11
100.679573
 21
153.622147
 31
0.0
  0
LINE
  5
248
100
AcDbEntity
  8
5
  6
CONTINUOUS
 62
       179
100
AcDbLine
 10
92.679573
 20
155.622147
 30
0.0
 11
100.679573
 21
155.622147
 31
0.0
  0
LINE
  5
249
100
AcDbEntity
  8
5
  6
CONTINUOUS
 62
       179
100
AcDbLine
 10
92.679573
 20
157.622147
 30
0.0
 11
100.679573
 21
157.622147
 31
0.0
  0
LINE
  5
24A
100
AcDbEntity
  8
5
  6
CONTINUOUS
 62
       179
100
AcDbLine
 10
92.679573
 20
159.622147
 30
0.0
 11
100.679573
 21
159.622147
 31
0.0
  0
LINE
  5
24B
100
AcDbEntity
  8
5
  6
CONTINUOUS
 62
       179
100
AcDbLine
 10
92.679573
 20
161.622147
 30
0.0
 11
100.679573
 21
161.622147
 31
0.0
  0
LINE
  5
24C
100
AcDbEntity
  8
5
  6
CONTINUOUS
 62
       179
100
AcDbLine
 10
92.679573
 20
163.622147
 30
0.0
 11
100.679573
 21
163.622147
 31
0.0
  0
LINE
  5
24D
100
AcDbEntity
  8
5
  6
CONTINUOUS
 62
       179
100
AcDbLine
 10
92.679573
 20
165.622147
 30
0.0
 11
100.679573
 21
165.622147
 31
0.0
  0
LINE
  5
24E
100
AcDbEntity
  8
5
  6
CONTINUOUS
 62
       179
100
AcDbLine
 10
92.679573
 20
167.622147
 30
0.0
 11
100.679573
 21
167.622147
 31
0.0
  0
LINE
  5
24F
100
AcDbEntity
  8
5
  6
CONTINUOUS
 62
       179
100
AcDbLine
 10
92.679573
 20
169.622147
 30
0.0
 11
100.679573
 21
169.622147
 31
0.0
  0
LINE
  5
250
100
AcDbEntity
  8
5
  6
CONTINUOUS
 62
       179
100
AcDbLine
 10
92.679573
 20
171.622147
 30
0.0
 11
100.679573
 21
171.622147
 31
0.0
  0
LINE
  5
251
100
AcDbEntity
  8
5
  6
CONTINUOUS
 62
       179
100
AcDbLine
 10
92.679573
 20
173.622147
 30
0.0
 11
100.679573
 21
173.622147
 31
0.0
  0
LINE
  5
252
100
AcDbEntity
  8
5
  6
CONTINUOUS
 62
       179
100
AcDbLine
 10
92.679573
 20
175.622147
 30
0.0
 11
100.679573
 21
175.622147
 31
0.0
  0
LINE
  5
253
100
AcDbEntity
  8
5
  6
CONTINUOUS
 62
       179
100
AcDbLine
 10
92.679573
 20
177.622147
 30
0.0
 11
100.679573
 21
177.622147
 31
0.0
  0
ENDBLK
  5
254
100
AcDbEntity
  8
0
100
AcDbBlockEnd
  0
BLOCK
  5
256
100
AcDbEntity
  8
0
 62
         0
100
AcDbBlockBegin
  2
MEDCLUMP_CRH_364_
 70
         0
 10
0.0
 20
0.0
 30
0.0
  3
MEDCLUMP_CRH_364_
  1

  0
LINE
  5
257
100
AcDbEntity
  8
5
  6
CONTINUOUS
 62
       179
100
AcDbLine
 10
81.679573
 20
149.622147
 30
0.0
 11
85.679573
 21
149.622147
 31
0.0
  0
LINE
  5
258
100
AcDbEntity
  8
5
  6
CONTINUOUS
 62
       179
100
AcDbLine
 10
81.679573
 20
151.622147
 30
0.0
 11
85.679573
 21
151.622147
 31
0.0
  0
LINE
  5
259
100
AcDbEntity
  8
5
  6
CONTINUOUS
 62
       179
100
AcDbLine
 10
81.679573
 20
153.622147
 30
0.0
 11
85.679573
 21
153.622147
 31
0.0
  0
LINE
  5
25A
100
AcDbEntity
  8
5
  6
CONTINUOUS
 62
       179
100
AcDbLine
 10
81.679573
 20
155.622147
 30
0.0
 11
85.679573
 21
155.622147
 31
0.0
  0
LINE
  5
25B
100
AcDbEntity
  8
5
  6
CONTINUOUS
 62
       179
100
AcDbLine
 10
81.679573
 20
157.622147
 30
0.0
 11
85.679573
 21
157.622147
 31
0.0
  0
LINE
  5
25C
100
AcDbEntity
  8
5
  6
CONTINUOUS
 62
       179
100
AcDbLine
 10
81.679573
 20
159.622147
 30
0.0
 11
85.679573
 21
159.622147
 31
0.0
  0
LINE
  5
25D
100
AcDbEntity
  8
5
  6
CONTINUOUS
 62
       179
100
AcDbLine
 10
81.679573
 20
161.622147
 30
0.0
 11
85.679573
 21
161.622147
 31
0.0
  0
LINE
  5
25E
100
AcDbEntity
  8
5
  6
CONTINUOUS
 62
       179
100
AcDbLine
 10
81.679573
 20
163.622147
 30
0.0
 11
85.679573
 21
163.622147
 31
0.0
  0
LINE
  5
25F
100
AcDbEntity
  8
5
  6
CONTINUOUS
 62
       179
100
AcDbLine
 10
81.679573
 20
165.622147
 30
0.0
 11
85.679573
 21
165.622147
 31
0.0
  0
LINE
  5
260
100
AcDbEntity
  8
5
  6
CONTINUOUS
 62
       179
100
AcDbLine
 10
81.679573
 20
167.622147
 30
0.0
 11
85.679573
 21
167.622147
 31
0.0
  0
LINE
  5
261
100
AcDbEntity
  8
5
  6
CONTINUOUS
 62
       179
100
AcDbLine
 10
81.679573
 20
169.622147
 30
0.0
 11
85.679573
 21
169.622147
 31
0.0
  0
LINE
  5
262
100
AcDbEntity
  8
5
  6
CONTINUOUS
 62
       179
100
AcDbLine
 10
81.679573
 20
171.622147
 30
0.0
 11
85.679573
 21
171.622147
 31
0.0
  0
LINE
  5
263
100
AcDbEntity
  8
5
  6
CONTINUOUS
 62
       179
100
AcDbLine
 10
81.679573
 20
173.622147
 30
0.0
 11
85.679573
 21
173.622147
 31
0.0
  0
LINE
  5
264
100
AcDbEntity
  8
5
  6
CONTINUOUS
 62
       179
100
AcDbLine
 10
81.679573
 20
175.622147
 30
0.0
 11
85.679573
 21
175.622147
 31
0.0
  0
ENDBLK
  5
265
100
AcDbEntity
  8
0
100
AcDbBlockEnd
  0
BLOCK
  5
267
100
AcDbEntity
  8
0
 62
         0
100
AcDbBlockBegin
  2
MEDCLUMP_SET_379_
 70
         0
 10
0.0
 20
0.0
 30
0.0
  3
MEDCLUMP_SET_379_
  1

  0
CIRCLE
  5
268
100
AcDbEntity
  8
11
  6
CONTINUOUS
 62
         3
100
AcDbCircle
 10
153.679565
 20
163.187057
 30
0.0
 40
41.0
  0
CIRCLE
  5
269
100
AcDbEntity
  8
11
  6
CONTINUOUS
 62
         3
100
AcDbCircle
 10
153.679565
 20
163.187057
 30
0.0
 40
39.0
  0
ENDBLK
  5
26A
100
AcDbEntity
  8
0
100
AcDbBlockEnd
  0
BLOCK
  5
2F8
100
AcDbEntity
  8
0
 62
       179
100
AcDbBlockBegin
  2
*D21
 70
         1
 10
0.0
 20
0.0
 30
0.0
  3
*D21
  1

  0
MTEXT
  5
2FA
100
AcDbEntity
  8
4
100
AcDbMText
 10
249.9376555
 20
208.1148110582
 30
0.0
 40
3.5
 41
0.0
 71
         1
 72
         1
  1
6
  7
SLDTEXTSTYLE4
  0
LINE
  5
2FB
100
AcDbEntity
  8
4
100
AcDbLine
 10
261.8737945
 20
203.449311
 30
0.0
 11
261.8737945
 21
174.171189
 31
0.0
  0
LINE
  5
2FC
100
AcDbEntity
  8
4
100
AcDbLine
 10
255.8737945
 20
191.401429
 30
0.0
 11
255.8737945
 21
173.861405
 31
0.0
  0
LINE
  5
2FD
100
AcDbEntity
  8
4
100
AcDbLine
 10
255.8737945
 20
203.449311
 30
0.0
 11
255.8737945
 21
194.592179
 31
0.0
  0
LINE
  5
2FE
100
AcDbEntity
  8
4
100
AcDbLine
 10
255.8737945
 20
202.449311
 30
0.0
 11
252.3737915
 21
203.032645
 31
0.0
  0
LINE
  5
2FF
100
AcDbEntity
  8
4
100
AcDbLine
 10
252.3737915
 20
201.865977
 30
0.0
 11
255.8737945
 21
202.449311
 31
0.0
  0
LINE
  5
300
100
AcDbEntity
  8
4
100
AcDbLine
 10
252.3737915
 20
203.032645
 30
0.0
 11
252.3737915
 21
201.865977
 31
0.0
  0
LINE
  5
301
100
AcDbEntity
  8
4
100
AcDbLine
 10
255.2904605
 20
202.449311
 30
0.0
 11
252.3737915
 21
202.935422
 31
0.0
  0
LINE
  5
302
100
AcDbEntity
  8
4
100
AcDbLine
 10
252.3737915
 20
201.9632
 30
0.0
 11
255.2904605
 21
202.449311
 31
0.0
  0
LINE
  5
303
100
AcDbEntity
  8
4
100
AcDbLine
 10
254.7071265
 20
202.449311
 30
0.0
 11
252.3737915
 21
202.8382
 31
0.0
  0
LINE
  5
304
100
AcDbEntity
  8
4
100
AcDbLine
 10
252.3737915
 20
202.060422
 30
0.0
 11
254.7071265
 21
202.449311
 31
0.0
  0
LINE
  5
305
100
AcDbEntity
  8
4
100
AcDbLine
 10
254.1237935
 20
202.449311
 30
0.0
 11
252.3737915
 21
202.740978
 31
0.0
  0
LINE
  5
306
100
AcDbEntity
  8
4
100
AcDbLine
 10
252.3737915
 20
202.157644
 30
0.0
 11
254.1237935
 21
202.449311
 31
0.0
  0
LINE
  5
307
100
AcDbEntity
  8
4
100
AcDbLine
 10
253.5404595
 20
202.449311
 30
0.0
 11
252.3737915
 21
202.643756
 31
0.0
  0
LINE
  5
308
100
AcDbEntity
  8
4
100
AcDbLine
 10
252.3737915
 20
202.254866
 30
0.0
 11
253.5404595
 21
202.449311
 31
0.0
  0
LINE
  5
309
100
AcDbEntity
  8
4
100
AcDbLine
 10
252.9571255
 20
202.449311
 30
0.0
 11
252.3737915
 21
202.546533
 31
0.0
  0
LINE
  5
30A
100
AcDbEntity
  8
4
100
AcDbLine
 10
252.3737915
 20
202.352089
 30
0.0
 11
252.9571255
 21
202.449311
 31
0.0
  0
LINE
  5
30B
100
AcDbEntity
  8
4
100
AcDbLine
 10
261.8737945
 20
202.449311
 30
0.0
 11
265.3737975
 21
203.032645
 31
0.0
  0
LINE
  5
30C
100
AcDbEntity
  8
4
100
AcDbLine
 10
265.3737975
 20
201.865977
 30
0.0
 11
261.8737945
 21
202.449311
 31
0.0
  0
LINE
  5
30D
100
AcDbEntity
  8
4
100
AcDbLine
 10
265.3737975
 20
203.032645
 30
0.0
 11
265.3737975
 21
201.865977
 31
0.0
  0
LINE
  5
30E
100
AcDbEntity
  8
4
100
AcDbLine
 10
262.4571285
 20
202.449311
 30
0.0
 11
265.3737975
 21
202.935422
 31
0.0
  0
LINE
  5
30F
100
AcDbEntity
  8
4
100
AcDbLine
 10
265.3737975
 20
201.9632
 30
0.0
 11
262.4571285
 21
202.449311
 31
0.0
  0
LINE
  5
310
100
AcDbEntity
  8
4
100
AcDbLine
 10
263.0404625
 20
202.449311
 30
0.0
 11
265.3737975
 21
202.8382
 31
0.0
  0
LINE
  5
311
100
AcDbEntity
  8
4
100
AcDbLine
 10
265.3737975
 20
202.060422
 30
0.0
 11
263.0404625
 21
202.449311
 31
0.0
  0
LINE
  5
312
100
AcDbEntity
  8
4
100
AcDbLine
 10
263.6237955
 20
202.449311
 30
0.0
 11
265.3737975
 21
202.740978
 31
0.0
  0
LINE
  5
313
100
AcDbEntity
  8
4
100
AcDbLine
 10
265.3737975
 20
202.157644
 30
0.0
 11
263.6237955
 21
202.449311
 31
0.0
  0
LINE
  5
314
100
AcDbEntity
  8
4
100
AcDbLine
 10
264.2071295
 20
202.449311
 30
0.0
 11
265.3737975
 21
202.643756
 31
0.0
  0
LINE
  5
315
100
AcDbEntity
  8
4
100
AcDbLine
 10
265.3737975
 20
202.254866
 30
0.0
 11
264.2071295
 21
202.449311
 31
0.0
  0
LINE
  5
316
100
AcDbEntity
  8
4
100
AcDbLine
 10
264.7904635
 20
202.449311
 30
0.0
 11
265.3737975
 21
202.546533
 31
0.0
  0
LINE
  5
317
100
AcDbEntity
  8
4
100
AcDbLine
 10
265.3737975
 20
202.352089
 30
0.0
 11
264.7904635
 21
202.449311
 31
0.0
  0
LINE
  5
318
100
AcDbEntity
  8
4
100
AcDbLine
 10
255.8737945
 20
202.449311
 30
0.0
 11
247.0173035
 21
202.449311
 31
0.0
  0
LINE
  5
319
100
AcDbEntity
  8
4
100
AcDbLine
 10
261.8737945
 20
202.449311
 30
0.0
 11
255.8737945
 21
202.449311
 31
0.0
  0
LINE
  5
31A
100
AcDbEntity
  8
4
100
AcDbLine
 10
268.8737945
 20
202.449311
 30
0.0
 11
261.8737945
 21
202.449311
 31
0.0
  0
POINT
  5
320
100
AcDbEntity
  8
DEFPOINTS
100
AcDbPoint
 10
255.8737945
 20
172.861405
 30
0.0
  0
POINT
  5
321
100
AcDbEntity
  8
DEFPOINTS
100
AcDbPoint
 10
261.8737945
 20
173.171189
 30
0.0
  0
ENDBLK
  5
322
100
AcDbEntity
  8
0
 62
       179
100
AcDbBlockEnd
  0
BLOCK
  5
31E
100
AcDbEntity
  8
0
100
AcDbBlockBegin
  2
_NONE
 70
         0
 10
0.0
 20
0.0
 30
0.0
  3
_NONE
  1

  0
ENDBLK
  5
31F
100
AcDbEntity
  8
0
100
AcDbBlockEnd
  0
BLOCK
  5
325
100
AcDbEntity
  8
0
 62
       179
100
AcDbBlockBegin
  2
*D23
 70
         1
 10
0.0
 20
0.0
 30
0.0
  3
*D23
  1

  0
MTEXT
  5
326
100
AcDbEntity
  8
4
100
AcDbMText
 10
290.8158684418
 20
98.221562
 30
0.0
 40
3.5
 41
0.0
 71
         1
 72
         1
  1
 8 
  7
SLDTEXTSTYLE4
 11
0.0
 21
1.0
 31
0.0
  0
LINE
  5
327
100
AcDbEntity
  8
4
100
AcDbLine
 10
296.4813685
 20
112.687058
 30
0.0
 11
295.8980345
 21
109.187055
 31
0.0
  0
LINE
  5
328
100
AcDbEntity
  8
4
100
AcDbLine
 10
297.0647025
 20
109.187055
 30
0.0
 11
296.4813685
 21
112.687058
 31
0.0
  0
LINE
  5
329
100
AcDbEntity
  8
4
100
AcDbLine
 10
295.8980345
 20
109.187055
 30
0.0
 11
297.0647025
 21
109.187055
 31
0.0
  0
LINE
  5
32A
100
AcDbEntity
  8
4
100
AcDbLine
 10
296.4813685
 20
112.103724
 30
0.0
 11
295.9952575
 21
109.187055
 31
0.0
  0
LINE
  5
32B
100
AcDbEntity
  8
4
100
AcDbLine
 10
296.9674795
 20
109.187055
 30
0.0
 11
296.4813685
 21
112.103724
 31
0.0
  0
LINE
  5
32C
100
AcDbEntity
  8
4
100
AcDbLine
 10
296.4813685
 20
111.52039
 30
0.0
 11
296.0924795
 21
109.187055
 31
0.0
  0
LINE
  5
32D
100
AcDbEntity
  8
4
100
AcDbLine
 10
296.8702575
 20
109.187055
 30
0.0
 11
296.4813685
 21
111.52039
 31
0.0
  0
LINE
  5
32E
100
AcDbEntity
  8
4
100
AcDbLine
 10
296.4813685
 20
110.937057
 30
0.0
 11
296.1897015
 21
109.187055
 31
0.0
  0
LINE
  5
32F
100
AcDbEntity
  8
4
100
AcDbLine
 10
296.7730355
 20
109.187055
 30
0.0
 11
296.4813685
 21
110.937057
 31
0.0
  0
LINE
  5
330
100
AcDbEntity
  8
4
100
AcDbLine
 10
296.4813685
 20
110.353723
 30
0.0
 11
296.2869235
 21
109.187055
 31
0.0
  0
LINE
  5
331
100
AcDbEntity
  8
4
100
AcDbLine
 10
296.6758135
 20
109.187055
 30
0.0
 11
296.4813685
 21
110.353723
 31
0.0
  0
LINE
  5
332
100
AcDbEntity
  8
4
100
AcDbLine
 10
296.4813685
 20
109.770389
 30
0.0
 11
296.3841465
 21
109.187055
 31
0.0
  0
LINE
  5
333
100
AcDbEntity
  8
4
100
AcDbLine
 10
296.5785905
 20
109.187055
 30
0.0
 11
296.4813685
 21
109.770389
 31
0.0
  0
LINE
  5
334
100
AcDbEntity
  8
4
100
AcDbLine
 10
296.4813685
 20
120.687058
 30
0.0
 11
295.8980345
 21
124.187061
 31
0.0
  0
LINE
  5
335
100
AcDbEntity
  8
4
100
AcDbLine
 10
297.0647025
 20
124.187061
 30
0.0
 11
296.4813685
 21
120.687058
 31
0.0
  0
LINE
  5
336
100
AcDbEntity
  8
4
100
AcDbLine
 10
295.8980345
 20
124.187061
 30
0.0
 11
297.0647025
 21
124.187061
 31
0.0
  0
LINE
  5
337
100
AcDbEntity
  8
4
100
AcDbLine
 10
296.4813685
 20
121.270392
 30
0.0
 11
295.9952575
 21
124.187061
 31
0.0
  0
LINE
  5
338
100
AcDbEntity
  8
4
100
AcDbLine
 10
296.9674795
 20
124.187061
 30
0.0
 11
296.4813685
 21
121.270392
 31
0.0
  0
LINE
  5
339
100
AcDbEntity
  8
4
100
AcDbLine
 10
296.4813685
 20
121.853726
 30
0.0
 11
296.0924795
 21
124.187061
 31
0.0
  0
LINE
  5
33A
100
AcDbEntity
  8
4
100
AcDbLine
 10
296.8702575
 20
124.187061
 30
0.0
 11
296.4813685
 21
121.853726
 31
0.0
  0
LINE
  5
33B
100
AcDbEntity
  8
4
100
AcDbLine
 10
296.4813685
 20
122.437059
 30
0.0
 11
296.1897015
 21
124.187061
 31
0.0
  0
LINE
  5
33C
100
AcDbEntity
  8
4
100
AcDbLine
 10
296.7730355
 20
124.187061
 30
0.0
 11
296.4813685
 21
122.437059
 31
0.0
  0
LINE
  5
33D
100
AcDbEntity
  8
4
100
AcDbLine
 10
296.4813685
 20
123.020393
 30
0.0
 11
296.2869235
 21
124.187061
 31
0.0
  0
LINE
  5
33E
100
AcDbEntity
  8
4
100
AcDbLine
 10
296.6758135
 20
124.187061
 30
0.0
 11
296.4813685
 21
123.020393
 31
0.0
  0
LINE
  5
33F
100
AcDbEntity
  8
4
100
AcDbLine
 10
296.4813685
 20
123.603727
 30
0.0
 11
296.3841465
 21
124.187061
 31
0.0
  0
LINE
  5
340
100
AcDbEntity
  8
4
100
AcDbLine
 10
296.5785905
 20
124.187061
 30
0.0
 11
296.4813685
 21
123.603727
 31
0.0
  0
LINE
  5
341
100
AcDbEntity
  8
4
100
AcDbLine
 10
296.4813685
 20
112.687058
 30
0.0
 11
296.4813685
 21
97.056062
 31
0.0
  0
LINE
  5
342
100
AcDbEntity
  8
4
100
AcDbLine
 10
296.4813685
 20
120.687058
 30
0.0
 11
296.4813685
 21
112.687058
 31
0.0
  0
LINE
  5
343
100
AcDbEntity
  8
4
100
AcDbLine
 10
296.4813685
 20
127.687058
 30
0.0
 11
296.4813685
 21
120.687058
 31
0.0
  0
LINE
  5
344
100
AcDbEntity
  8
4
100
AcDbLine
 10
297.4813685
 20
112.687058
 30
0.0
 11
277.0738065
 21
112.687058
 31
0.0
  0
LINE
  5
345
100
AcDbEntity
  8
4
100
AcDbLine
 10
297.4813685
 20
120.687058
 30
0.0
 11
284.0738065
 21
120.687058
 31
0.0
  0
POINT
  5
346
100
AcDbEntity
  8
DEFPOINTS
100
AcDbPoint
 10
276.0738065
 20
112.687058
 30
0.0
  0
POINT
  5
347
100
AcDbEntity
  8
DEFPOINTS
100
AcDbPoint
 10
283.0738065
 20
120.687058
 30
0.0
  0
ENDBLK
  5
348
100
AcDbEntity
  8
0
 62
       179
100
AcDbBlockEnd
  0
BLOCK
  5
34B
100
AcDbEntity
  8
0
 62
       179
100
AcDbBlockBegin
  2
*D24
 70
         1
 10
0.0
 20
0.0
 30
0.0
  3
*D24
  1

  0
MTEXT
  5
34C
100
AcDbEntity
  8
4
100
AcDbMText
 10
98.1670565
 20
108.5696610582
 30
0.0
 40
3.5
 41
0.0
 71
         1
 72
         1
  1
 110 
  7
SLDTEXTSTYLE4
  0
LINE
  5
34D
100
AcDbEntity
  8
4
100
AcDbLine
 10
158.6795495
 20
102.904161
 30
0.0
 11
155.1795465
 21
102.320827
 31
0.0
  0
LINE
  5
34E
100
AcDbEntity
  8
4
100
AcDbLine
 10
155.1795465
 20
103.487495
 30
0.0
 11
158.6795495
 21
102.904161
 31
0.0
  0
LINE
  5
34F
100
AcDbEntity
  8
4
100
AcDbLine
 10
155.1795465
 20
102.320827
 30
0.0
 11
155.1795465
 21
103.487495
 31
0.0
  0
LINE
  5
350
100
AcDbEntity
  8
4
100
AcDbLine
 10
158.0962155
 20
102.904161
 30
0.0
 11
155.1795465
 21
102.41805
 31
0.0
  0
LINE
  5
351
100
AcDbEntity
  8
4
100
AcDbLine
 10
155.1795465
 20
103.390272
 30
0.0
 11
158.0962155
 21
102.904161
 31
0.0
  0
LINE
  5
352
100
AcDbEntity
  8
4
100
AcDbLine
 10
157.5128815
 20
102.904161
 30
0.0
 11
155.1795465
 21
102.515272
 31
0.0
  0
LINE
  5
353
100
AcDbEntity
  8
4
100
AcDbLine
 10
155.1795465
 20
103.29305
 30
0.0
 11
157.5128815
 21
102.904161
 31
0.0
  0
LINE
  5
354
100
AcDbEntity
  8
4
100
AcDbLine
 10
156.9295485
 20
102.904161
 30
0.0
 11
155.1795465
 21
102.612494
 31
0.0
  0
LINE
  5
355
100
AcDbEntity
  8
4
100
AcDbLine
 10
155.1795465
 20
103.195828
 30
0.0
 11
156.9295485
 21
102.904161
 31
0.0
  0
LINE
  5
356
100
AcDbEntity
  8
4
100
AcDbLine
 10
156.3462145
 20
102.904161
 30
0.0
 11
155.1795465
 21
102.709716
 31
0.0
  0
LINE
  5
357
100
AcDbEntity
  8
4
100
AcDbLine
 10
155.1795465
 20
103.098606
 30
0.0
 11
156.3462145
 21
102.904161
 31
0.0
  0
LINE
  5
358
100
AcDbEntity
  8
4
100
AcDbLine
 10
155.7628805
 20
102.904161
 30
0.0
 11
155.1795465
 21
102.806939
 31
0.0
  0
LINE
  5
359
100
AcDbEntity
  8
4
100
AcDbLine
 10
155.1795465
 20
103.001383
 30
0.0
 11
155.7628805
 21
102.904161
 31
0.0
  0
LINE
  5
35A
100
AcDbEntity
  8
4
100
AcDbLine
 10
48.6795535
 20
102.904161
 30
0.0
 11
52.1795565
 21
102.320827
 31
0.0
  0
LINE
  5
35B
100
AcDbEntity
  8
4
100
AcDbLine
 10
52.1795565
 20
103.487495
 30
0.0
 11
48.6795535
 21
102.904161
 31
0.0
  0
LINE
  5
35C
100
AcDbEntity
  8
4
100
AcDbLine
 10
52.1795565
 20
102.320827
 30
0.0
 11
52.1795565
 21
103.487495
 31
0.0
  0
LINE
  5
35D
100
AcDbEntity
  8
4
100
AcDbLine
 10
49.2628875
 20
102.904161
 30
0.0
 11
52.1795565
 21
102.41805
 31
0.0
  0
LINE
  5
35E
100
AcDbEntity
  8
4
100
AcDbLine
 10
52.1795565
 20
103.390272
 30
0.0
 11
49.2628875
 21
102.904161
 31
0.0
  0
LINE
  5
35F
100
AcDbEntity
  8
4
100
AcDbLine
 10
49.8462215
 20
102.904161
 30
0.0
 11
52.1795565
 21
102.515272
 31
0.0
  0
LINE
  5
360
100
AcDbEntity
  8
4
100
AcDbLine
 10
52.1795565
 20
103.29305
 30
0.0
 11
49.8462215
 21
102.904161
 31
0.0
  0
LINE
  5
361
100
AcDbEntity
  8
4
100
AcDbLine
 10
50.4295545
 20
102.904161
 30
0.0
 11
52.1795565
 21
102.612494
 31
0.0
  0
LINE
  5
362
100
AcDbEntity
  8
4
100
AcDbLine
 10
52.1795565
 20
103.195828
 30
0.0
 11
50.4295545
 21
102.904161
 31
0.0
  0
LINE
  5
363
100
AcDbEntity
  8
4
100
AcDbLine
 10
51.0128885
 20
102.904161
 30
0.0
 11
52.1795565
 21
102.709716
 31
0.0
  0
LINE
  5
364
100
AcDbEntity
  8
4
100
AcDbLine
 10
52.1795565
 20
103.098606
 30
0.0
 11
51.0128885
 21
102.904161
 31
0.0
  0
LINE
  5
365
100
AcDbEntity
  8
4
100
AcDbLine
 10
51.5962225
 20
102.904161
 30
0.0
 11
52.1795565
 21
102.806939
 31
0.0
  0
LINE
  5
366
100
AcDbEntity
  8
4
100
AcDbLine
 10
52.1795565
 20
103.001383
 30
0.0
 11
51.5962225
 21
102.904161
 31
0.0
  0
LINE
  5
367
100
AcDbEntity
  8
4
100
AcDbLine
 10
48.6795535
 20
102.904161
 30
0.0
 11
158.6795495
 21
102.904161
 31
0.0
  0
LINE
  5
368
100
AcDbEntity
  8
4
100
AcDbLine
 10
158.6795495
 20
101.904161
 30
0.0
 11
158.6795495
 21
120.734536
 31
0.0
  0
LINE
  5
369
100
AcDbEntity
  8
4
100
AcDbLine
 10
48.6795535
 20
101.904161
 30
0.0
 11
48.6795535
 21
184.187058
 31
0.0
  0
POINT
  5
36A
100
AcDbEntity
  8
DEFPOINTS
100
AcDbPoint
 10
158.6795495
 20
121.734536
 30
0.0
  0
POINT
  5
36B
100
AcDbEntity
  8
DEFPOINTS
100
AcDbPoint
 10
48.6795535
 20
185.187058
 30
0.0
  0
ENDBLK
  5
36C
100
AcDbEntity
  8
0
 62
       179
100
AcDbBlockEnd
  0
BLOCK
  5
36F
100
AcDbEntity
  8
0
 62
       179
100
AcDbBlockBegin
  2
*D25
 70
         1
 10
0.0
 20
0.0
 30
0.0
  3
*D25
  1

  0
MTEXT
  5
370
100
AcDbEntity
  8
4
100
AcDbMText
 10
231.5768094418
 20
131.352558
 30
0.0
 40
3.5
 41
0.0
 71
         1
 72
         1
  1
 5 
  7
SLDTEXTSTYLE4
 11
0.0
 21
1.0
 31
0.0
  0
LINE
  5
371
100
AcDbEntity
  8
4
100
AcDbLine
 10
237.2423095
 20
123.187058
 30
0.0
 11
237.8256435
 21
126.687061
 31
0.0
  0
LINE
  5
372
100
AcDbEntity
  8
4
100
AcDbLine
 10
236.6589755
 20
126.687061
 30
0.0
 11
237.2423095
 21
123.187058
 31
0.0
  0
LINE
  5
373
100
AcDbEntity
  8
4
100
AcDbLine
 10
237.8256435
 20
126.687061
 30
0.0
 11
236.6589755
 21
126.687061
 31
0.0
  0
LINE
  5
374
100
AcDbEntity
  8
4
100
AcDbLine
 10
237.2423095
 20
123.770392
 30
0.0
 11
237.7284205
 21
126.687061
 31
0.0
  0
LINE
  5
375
100
AcDbEntity
  8
4
100
AcDbLine
 10
236.7561985
 20
126.687061
 30
0.0
 11
237.2423095
 21
123.770392
 31
0.0
  0
LINE
  5
376
100
AcDbEntity
  8
4
100
AcDbLine
 10
237.2423095
 20
124.353726
 30
0.0
 11
237.6311985
 21
126.687061
 31
0.0
  0
LINE
  5
377
100
AcDbEntity
  8
4
100
AcDbLine
 10
236.8534205
 20
126.687061
 30
0.0
 11
237.2423095
 21
124.353726
 31
0.0
  0
LINE
  5
378
100
AcDbEntity
  8
4
100
AcDbLine
 10
237.2423095
 20
124.937059
 30
0.0
 11
237.5339765
 21
126.687061
 31
0.0
  0
LINE
  5
379
100
AcDbEntity
  8
4
100
AcDbLine
 10
236.9506425
 20
126.687061
 30
0.0
 11
237.2423095
 21
124.937059
 31
0.0
  0
LINE
  5
37A
100
AcDbEntity
  8
4
100
AcDbLine
 10
237.2423095
 20
125.520393
 30
0.0
 11
237.4367545
 21
126.687061
 31
0.0
  0
LINE
  5
37B
100
AcDbEntity
  8
4
100
AcDbLine
 10
237.0478645
 20
126.687061
 30
0.0
 11
237.2423095
 21
125.520393
 31
0.0
  0
LINE
  5
37C
100
AcDbEntity
  8
4
100
AcDbLine
 10
237.2423095
 20
126.103727
 30
0.0
 11
237.3395315
 21
126.687061
 31
0.0
  0
LINE
  5
37D
100
AcDbEntity
  8
4
100
AcDbLine
 10
237.1450875
 20
126.687061
 30
0.0
 11
237.2423095
 21
126.103727
 31
0.0
  0
LINE
  5
37E
100
AcDbEntity
  8
4
100
AcDbLine
 10
237.2423095
 20
118.187058
 30
0.0
 11
237.8256435
 21
114.687055
 31
0.0
  0
LINE
  5
37F
100
AcDbEntity
  8
4
100
AcDbLine
 10
236.6589755
 20
114.687055
 30
0.0
 11
237.2423095
 21
118.187058
 31
0.0
  0
LINE
  5
380
100
AcDbEntity
  8
4
100
AcDbLine
 10
237.8256435
 20
114.687055
 30
0.0
 11
236.6589755
 21
114.687055
 31
0.0
  0
LINE
  5
381
100
AcDbEntity
  8
4
100
AcDbLine
 10
237.2423095
 20
117.603724
 30
0.0
 11
237.7284205
 21
114.687055
 31
0.0
  0
LINE
  5
382
100
AcDbEntity
  8
4
100
AcDbLine
 10
236.7561985
 20
114.687055
 30
0.0
 11
237.2423095
 21
117.603724
 31
0.0
  0
LINE
  5
383
100
AcDbEntity
  8
4
100
AcDbLine
 10
237.2423095
 20
117.02039
 30
0.0
 11
237.6311985
 21
114.687055
 31
0.0
  0
LINE
  5
384
100
AcDbEntity
  8
4
100
AcDbLine
 10
236.8534205
 20
114.687055
 30
0.0
 11
237.2423095
 21
117.02039
 31
0.0
  0
LINE
  5
385
100
AcDbEntity
  8
4
100
AcDbLine
 10
237.2423095
 20
116.437057
 30
0.0
 11
237.5339765
 21
114.687055
 31
0.0
  0
LINE
  5
386
100
AcDbEntity
  8
4
100
AcDbLine
 10
236.9506425
 20
114.687055
 30
0.0
 11
237.2423095
 21
116.437057
 31
0.0
  0
LINE
  5
387
100
AcDbEntity
  8
4
100
AcDbLine
 10
237.2423095
 20
115.853723
 30
0.0
 11
237.4367545
 21
114.687055
 31
0.0
  0
LINE
  5
388
100
AcDbEntity
  8
4
100
AcDbLine
 10
237.0478645
 20
114.687055
 30
0.0
 11
237.2423095
 21
115.853723
 31
0.0
  0
LINE
  5
389
100
AcDbEntity
  8
4
100
AcDbLine
 10
237.2423095
 20
115.270389
 30
0.0
 11
237.3395315
 21
114.687055
 31
0.0
  0
LINE
  5
38A
100
AcDbEntity
  8
4
100
AcDbLine
 10
237.1450875
 20
114.687055
 30
0.0
 11
237.2423095
 21
115.270389
 31
0.0
  0
LINE
  5
38B
100
AcDbEntity
  8
4
100
AcDbLine
 10
237.2423095
 20
123.187058
 30
0.0
 11
237.2423095
 21
138.818055
 31
0.0
  0
LINE
  5
38C
100
AcDbEntity
  8
4
100
AcDbLine
 10
237.2423095
 20
118.187058
 30
0.0
 11
237.2423095
 21
123.187058
 31
0.0
  0
LINE
  5
38D
100
AcDbEntity
  8
4
100
AcDbLine
 10
237.2423095
 20
111.187058
 30
0.0
 11
237.2423095
 21
118.187058
 31
0.0
  0
LINE
  5
38E
100
AcDbEntity
  8
4
100
AcDbLine
 10
236.2423095
 20
123.187058
 30
0.0
 11
255.0738065
 21
123.187058
 31
0.0
  0
LINE
  5
38F
100
AcDbEntity
  8
4
100
AcDbLine
 10
236.2423095
 20
118.187058
 30
0.0
 11
255.0738065
 21
118.187058
 31
0.0
  0
POINT
  5
390
100
AcDbEntity
  8
DEFPOINTS
100
AcDbPoint
 10
256.0738065
 20
123.187058
 30
0.0
  0
POINT
  5
391
100
AcDbEntity
  8
DEFPOINTS
100
AcDbPoint
 10
256.0738065
 20
118.187058
 30
0.0
  0
ENDBLK
  5
392
100
AcDbEntity
  8
0
 62
       179
100
AcDbBlockEnd
  0
BLOCK
  5
395
100
AcDbEntity
  8
0
 62
       179
100
AcDbBlockBegin
  2
*D26
 70
         1
 10
0.0
 20
0.0
 30
0.0
  3
*D26
  1

  0
MTEXT
  5
396
100
AcDbEntity
  8
4
100
AcDbMText
 10
221.686607105
 20
181.2167461425
 30
0.0
 40
3.5
 41
0.0
 71
         1
 72
         1
  1
Ø10
  7
SLDTEXTSTYLE4
 11
0.0
 21
1.0
 31
0.0
  0
LINE
  5
397
100
AcDbEntity
  8
4
100
AcDbLine
 10
245.9738065
 20
163.187058
 30
0.0
 11
226.6866071632
 21
163.187058
 31
0.0
  0
LINE
  5
398
100
AcDbEntity
  8
4
100
AcDbLine
 10
245.9738065
 20
173.187058
 30
0.0
 11
226.6866071632
 21
173.187058
 31
0.0
  0
LINE
  5
399
100
AcDbEntity
  8
4
100
AcDbLine
 10
227.1866071632
 20
159.687058
 30
0.0
 11
227.1866071632
 21
156.187058
 31
0.0
  0
LINE
  5
39A
100
AcDbEntity
  8
4
100
AcDbLine
 10
227.1866071632
 20
176.687058
 30
0.0
 11
227.1866071632
 21
186.4406052974
 31
0.0
  0
LINE
  5
39B
100
AcDbEntity
  8
4
100
AcDbLine
 10
227.1866071632
 20
163.187058
 30
0.0
 11
227.1866071632
 21
173.187058
 31
0.0
  0
SOLID
  5
39C
100
AcDbEntity
  8
0
  6
CONTINUOUS
100
AcDbTrace
 10
227.1866071632
 20
163.187058
 30
0.0
 11
227.7699404965
 21
159.687058
 31
0.0
 12
226.6032738298
 22
159.687058
 32
0.0
 13
226.6032738298
 23
159.687058
 33
0.0
  0
SOLID
  5
39D
100
AcDbEntity
  8
0
  6
CONTINUOUS
100
AcDbTrace
 10
227.1866071632
 20
173.187058
 30
0.0
 11
227.7699404965
 21
176.687058
 31
0.0
 12
226.6032738298
 22
176.687058
 32
0.0
 13
226.6032738298
 23
176.687058
 33
0.0
  0
POINT
  5
39F
100
AcDbEntity
  8
DEFPOINTS
100
AcDbPoint
 10
246.0738065
 20
173.187058
 30
0.0
  0
POINT
  5
3A0
100
AcDbEntity
  8
DEFPOINTS
100
AcDbPoint
 10
246.0738065
 20
163.187058
 30
0.0
  0
ENDBLK
  5
3A1
100
AcDbEntity
  8
0
 62
       179
100
AcDbBlockEnd
  0
BLOCK
  5
3A4
100
AcDbEntity
  8
0
 62
       179
100
AcDbBlockBegin
  2
*D27
 70
         1
 10
0.0
 20
0.0
 30
0.0
  3
*D27
  1

  0
MTEXT
  5
3A5
100
AcDbEntity
  8
4
100
AcDbMText
 10
286.2393065
 20
254.0791060582
 30
0.0
 40
3.5
 41
0.0
 71
         1
 72
         1
  1
 5 
  7
SLDTEXTSTYLE4
  0
LINE
  5
3A6
100
AcDbEntity
  8
4
100
AcDbLine
 10
278.0738065
 20
248.413606
 30
0.0
 11
281.5738095
 21
247.830272
 31
0.0
  0
LINE
  5
3A7
100
AcDbEntity
  8
4
100
AcDbLine
 10
281.5738095
 20
248.99694
 30
0.0
 11
278.0738065
 21
248.413606
 31
0.0
  0
LINE
  5
3A8
100
AcDbEntity
  8
4
100
AcDbLine
 10
281.5738095
 20
247.830272
 30
0.0
 11
281.5738095
 21
248.99694
 31
0.0
  0
LINE
  5
3A9
100
AcDbEntity
  8
4
100
AcDbLine
 10
278.6571405
 20
248.413606
 30
0.0
 11
281.5738095
 21
247.927495
 31
0.0
  0
LINE
  5
3AA
100
AcDbEntity
  8
4
100
AcDbLine
 10
281.5738095
 20
248.899717
 30
0.0
 11
278.6571405
 21
248.413606
 31
0.0
  0
LINE
  5
3AB
100
AcDbEntity
  8
4
100
AcDbLine
 10
279.2404745
 20
248.413606
 30
0.0
 11
281.5738095
 21
248.024717
 31
0.0
  0
LINE
  5
3AC
100
AcDbEntity
  8
4
100
AcDbLine
 10
281.5738095
 20
248.802495
 30
0.0
 11
279.2404745
 21
248.413606
 31
0.0
  0
LINE
  5
3AD
100
AcDbEntity
  8
4
100
AcDbLine
 10
279.8238075
 20
248.413606
 30
0.0
 11
281.5738095
 21
248.121939
 31
0.0
  0
LINE
  5
3AE
100
AcDbEntity
  8
4
100
AcDbLine
 10
281.5738095
 20
248.705273
 30
0.0
 11
279.8238075
 21
248.413606
 31
0.0
  0
LINE
  5
3AF
100
AcDbEntity
  8
4
100
AcDbLine
 10
280.4071415
 20
248.413606
 30
0.0
 11
281.5738095
 21
248.219161
 31
0.0
  0
LINE
  5
3B0
100
AcDbEntity
  8
4
100
AcDbLine
 10
281.5738095
 20
248.608051
 30
0.0
 11
280.4071415
 21
248.413606
 31
0.0
  0
LINE
  5
3B1
100
AcDbEntity
  8
4
100
AcDbLine
 10
280.9904755
 20
248.413606
 30
0.0
 11
281.5738095
 21
248.316384
 31
0.0
  0
LINE
  5
3B2
100
AcDbEntity
  8
4
100
AcDbLine
 10
281.5738095
 20
248.510828
 30
0.0
 11
280.9904755
 21
248.413606
 31
0.0
  0
LINE
  5
3B3
100
AcDbEntity
  8
4
100
AcDbLine
 10
273.0738065
 20
248.413606
 30
0.0
 11
269.5738035
 21
247.830272
 31
0.0
  0
LINE
  5
3B4
100
AcDbEntity
  8
4
100
AcDbLine
 10
269.5738035
 20
248.99694
 30
0.0
 11
273.0738065
 21
248.413606
 31
0.0
  0
LINE
  5
3B5
100
AcDbEntity
  8
4
100
AcDbLine
 10
269.5738035
 20
247.830272
 30
0.0
 11
269.5738035
 21
248.99694
 31
0.0
  0
LINE
  5
3B6
100
AcDbEntity
  8
4
100
AcDbLine
 10
272.4904725
 20
248.413606
 30
0.0
 11
269.5738035
 21
247.927495
 31
0.0
  0
LINE
  5
3B7
100
AcDbEntity
  8
4
100
AcDbLine
 10
269.5738035
 20
248.899717
 30
0.0
 11
272.4904725
 21
248.413606
 31
0.0
  0
LINE
  5
3B8
100
AcDbEntity
  8
4
100
AcDbLine
 10
271.9071385
 20
248.413606
 30
0.0
 11
269.5738035
 21
248.024717
 31
0.0
  0
LINE
  5
3B9
100
AcDbEntity
  8
4
100
AcDbLine
 10
269.5738035
 20
248.802495
 30
0.0
 11
271.9071385
 21
248.413606
 31
0.0
  0
LINE
  5
3BA
100
AcDbEntity
  8
4
100
AcDbLine
 10
271.3238055
 20
248.413606
 30
0.0
 11
269.5738035
 21
248.121939
 31
0.0
  0
LINE
  5
3BB
100
AcDbEntity
  8
4
100
AcDbLine
 10
269.5738035
 20
248.705273
 30
0.0
 11
271.3238055
 21
248.413606
 31
0.0
  0
LINE
  5
3BC
100
AcDbEntity
  8
4
100
AcDbLine
 10
270.7404715
 20
248.413606
 30
0.0
 11
269.5738035
 21
248.219161
 31
0.0
  0
LINE
  5
3BD
100
AcDbEntity
  8
4
100
AcDbLine
 10
269.5738035
 20
248.608051
 30
0.0
 11
270.7404715
 21
248.413606
 31
0.0
  0
LINE
  5
3BE
100
AcDbEntity
  8
4
100
AcDbLine
 10
270.1571375
 20
248.413606
 30
0.0
 11
269.5738035
 21
248.316384
 31
0.0
  0
LINE
  5
3BF
100
AcDbEntity
  8
4
100
AcDbLine
 10
269.5738035
 20
248.510828
 30
0.0
 11
270.1571375
 21
248.413606
 31
0.0
  0
LINE
  5
3C0
100
AcDbEntity
  8
4
100
AcDbLine
 10
278.0738065
 20
248.413606
 30
0.0
 11
293.7048185
 21
248.413606
 31
0.0
  0
LINE
  5
3C1
100
AcDbEntity
  8
4
100
AcDbLine
 10
273.0738065
 20
248.413606
 30
0.0
 11
278.0738065
 21
248.413606
 31
0.0
  0
LINE
  5
3C2
100
AcDbEntity
  8
4
100
AcDbLine
 10
266.0738065
 20
248.413606
 30
0.0
 11
273.0738065
 21
248.413606
 31
0.0
  0
LINE
  5
3C3
100
AcDbEntity
  8
4
100
AcDbLine
 10
278.0738065
 20
249.413606
 30
0.0
 11
278.0738065
 21
210.187058
 31
0.0
  0
LINE
  5
3C4
100
AcDbEntity
  8
4
100
AcDbLine
 10
273.0738065
 20
226.499818
 30
0.0
 11
273.0738065
 21
210.187058
 31
0.0
  0
LINE
  5
3C5
100
AcDbEntity
  8
4
100
AcDbLine
 10
273.0738065
 20
249.413606
 30
0.0
 11
273.0738065
 21
228.954255
 31
0.0
  0
POINT
  5
3C6
100
AcDbEntity
  8
DEFPOINTS
100
AcDbPoint
 10
278.0738065
 20
209.187058
 30
0.0
  0
POINT
  5
3C7
100
AcDbEntity
  8
DEFPOINTS
100
AcDbPoint
 10
273.0738065
 20
209.187058
 30
0.0
  0
ENDBLK
  5
3C8
100
AcDbEntity
  8
0
 62
       179
100
AcDbBlockEnd
  0
BLOCK
  5
3CB
100
AcDbEntity
  8
0
 62
       179
100
AcDbBlockBegin
  2
*D28
 70
         1
 10
0.0
 20
0.0
 30
0.0
  3
*D28
  1

  0
MTEXT
  5
3CC
100
AcDbEntity
  8
4
100
AcDbMText
 10
306.2425415
 20
265.7620590582
 30
0.0
 40
3.5
 41
0.0
 71
         1
 72
         1
  1
 91 
  7
SLDTEXTSTYLE4
  0
LINE
  5
3CD
100
AcDbEntity
  8
4
100
AcDbLine
 10
356.0738065
 20
260.096559
 30
0.0
 11
352.5738035
 21
259.513225
 31
0.0
  0
LINE
  5
3CE
100
AcDbEntity
  8
4
100
AcDbLine
 10
352.5738035
 20
260.679893
 30
0.0
 11
356.0738065
 21
260.096559
 31
0.0
  0
LINE
  5
3CF
100
AcDbEntity
  8
4
100
AcDbLine
 10
352.5738035
 20
259.513225
 30
0.0
 11
352.5738035
 21
260.679893
 31
0.0
  0
LINE
  5
3D0
100
AcDbEntity
  8
4
100
AcDbLine
 10
355.4904725
 20
260.096559
 30
0.0
 11
352.5738035
 21
259.610448
 31
0.0
  0
LINE
  5
3D1
100
AcDbEntity
  8
4
100
AcDbLine
 10
352.5738035
 20
260.58267
 30
0.0
 11
355.4904725
 21
260.096559
 31
0.0
  0
LINE
  5
3D2
100
AcDbEntity
  8
4
100
AcDbLine
 10
354.9071385
 20
260.096559
 30
0.0
 11
352.5738035
 21
259.70767
 31
0.0
  0
LINE
  5
3D3
100
AcDbEntity
  8
4
100
AcDbLine
 10
352.5738035
 20
260.485448
 30
0.0
 11
354.9071385
 21
260.096559
 31
0.0
  0
LINE
  5
3D4
100
AcDbEntity
  8
4
100
AcDbLine
 10
354.3238055
 20
260.096559
 30
0.0
 11
352.5738035
 21
259.804892
 31
0.0
  0
LINE
  5
3D5
100
AcDbEntity
  8
4
100
AcDbLine
 10
352.5738035
 20
260.388226
 30
0.0
 11
354.3238055
 21
260.096559
 31
0.0
  0
LINE
  5
3D6
100
AcDbEntity
  8
4
100
AcDbLine
 10
353.7404715
 20
260.096559
 30
0.0
 11
352.5738035
 21
259.902114
 31
0.0
  0
LINE
  5
3D7
100
AcDbEntity
  8
4
100
AcDbLine
 10
352.5738035
 20
260.291004
 30
0.0
 11
353.7404715
 21
260.096559
 31
0.0
  0
LINE
  5
3D8
100
AcDbEntity
  8
4
100
AcDbLine
 10
353.1571375
 20
260.096559
 30
0.0
 11
352.5738035
 21
259.999337
 31
0.0
  0
LINE
  5
3D9
100
AcDbEntity
  8
4
100
AcDbLine
 10
352.5738035
 20
260.193781
 30
0.0
 11
353.1571375
 21
260.096559
 31
0.0
  0
LINE
  5
3DA
100
AcDbEntity
  8
4
100
AcDbLine
 10
265.0738065
 20
260.096559
 30
0.0
 11
268.5738095
 21
259.513225
 31
0.0
  0
LINE
  5
3DB
100
AcDbEntity
  8
4
100
AcDbLine
 10
268.5738095
 20
260.679893
 30
0.0
 11
265.0738065
 21
260.096559
 31
0.0
  0
LINE
  5
3DC
100
AcDbEntity
  8
4
100
AcDbLine
 10
268.5738095
 20
259.513225
 30
0.0
 11
268.5738095
 21
260.679893
 31
0.0
  0
LINE
  5
3DD
100
AcDbEntity
  8
4
100
AcDbLine
 10
265.6571405
 20
260.096559
 30
0.0
 11
268.5738095
 21
259.610448
 31
0.0
  0
LINE
  5
3DE
100
AcDbEntity
  8
4
100
AcDbLine
 10
268.5738095
 20
260.58267
 30
0.0
 11
265.6571405
 21
260.096559
 31
0.0
  0
LINE
  5
3DF
100
AcDbEntity
  8
4
100
AcDbLine
 10
266.2404745
 20
260.096559
 30
0.0
 11
268.5738095
 21
259.70767
 31
0.0
  0
LINE
  5
3E0
100
AcDbEntity
  8
4
100
AcDbLine
 10
268.5738095
 20
260.485448
 30
0.0
 11
266.2404745
 21
260.096559
 31
0.0
  0
LINE
  5
3E1
100
AcDbEntity
  8
4
100
AcDbLine
 10
266.8238075
 20
260.096559
 30
0.0
 11
268.5738095
 21
259.804892
 31
0.0
  0
LINE
  5
3E2
100
AcDbEntity
  8
4
100
AcDbLine
 10
268.5738095
 20
260.388226
 30
0.0
 11
266.8238075
 21
260.096559
 31
0.0
  0
LINE
  5
3E3
100
AcDbEntity
  8
4
100
AcDbLine
 10
267.4071415
 20
260.096559
 30
0.0
 11
268.5738095
 21
259.902114
 31
0.0
  0
LINE
  5
3E4
100
AcDbEntity
  8
4
100
AcDbLine
 10
268.5738095
 20
260.291004
 30
0.0
 11
267.4071415
 21
260.096559
 31
0.0
  0
LINE
  5
3E5
100
AcDbEntity
  8
4
100
AcDbLine
 10
267.9904755
 20
260.096559
 30
0.0
 11
268.5738095
 21
259.999337
 31
0.0
  0
LINE
  5
3E6
100
AcDbEntity
  8
4
100
AcDbLine
 10
268.5738095
 20
260.193781
 30
0.0
 11
267.9904755
 21
260.096559
 31
0.0
  0
LINE
  5
3E7
100
AcDbEntity
  8
4
100
AcDbLine
 10
265.0738065
 20
260.096559
 30
0.0
 11
356.0738065
 21
260.096559
 31
0.0
  0
LINE
  5
3E8
100
AcDbEntity
  8
4
100
AcDbLine
 10
356.0738065
 20
261.096559
 30
0.0
 11
356.0738065
 21
208.187058
 31
0.0
  0
LINE
  5
3E9
100
AcDbEntity
  8
4
100
AcDbLine
 10
265.0738065
 20
200.360108
 30
0.0
 11
265.0738065
 21
194.187058
 31
0.0
  0
LINE
  5
3EA
100
AcDbEntity
  8
4
100
AcDbLine
 10
265.0738065
 20
209.686952
 30
0.0
 11
265.0738065
 21
204.53264
 31
0.0
  0
LINE
  5
3EB
100
AcDbEntity
  8
4
100
AcDbLine
 10
265.0738065
 20
237.299317
 30
0.0
 11
265.0738065
 21
211.405061
 31
0.0
  0
LINE
  5
3EC
100
AcDbEntity
  8
4
100
AcDbLine
 10
265.0738065
 20
261.096559
 30
0.0
 11
265.0738065
 21
241.349137
 31
0.0
  0
POINT
  5
3ED
100
AcDbEntity
  8
DEFPOINTS
100
AcDbPoint
 10
356.0738065
 20
207.187058
 30
0.0
  0
POINT
  5
3EE
100
AcDbEntity
  8
DEFPOINTS
100
AcDbPoint
 10
265.0738065
 20
193.187058
 30
0.0
  0
ENDBLK
  5
3EF
100
AcDbEntity
  8
0
 62
       179
100
AcDbBlockEnd
  0
BLOCK
  5
3F2
100
AcDbEntity
  8
0
 62
       179
100
AcDbBlockBegin
  2
*D29
 70
         1
 10
0.0
 20
0.0
 30
0.0
  3
*D29
  1

  0
MTEXT
  5
3F3
100
AcDbEntity
  8
4
100
AcDbMText
 10
232.0093954418
 20
176.443699
 30
0.0
 40
3.5
 41
0.0
 71
         1
 72
         1
  1
 1.5 
  7
SLDTEXTSTYLE4
 11
0.0
 21
1.0
 31
0.0
  0
LINE
  5
3F4
100
AcDbEntity
  8
4
100
AcDbLine
 10
237.6748955
 20
173.187058
 30
0.0
 11
238.2582295
 21
176.687061
 31
0.0
  0
LINE
  5
3F5
100
AcDbEntity
  8
4
100
AcDbLine
 10
237.0915615
 20
176.687061
 30
0.0
 11
237.6748955
 21
173.187058
 31
0.0
  0
LINE
  5
3F6
100
AcDbEntity
  8
4
100
AcDbLine
 10
238.2582295
 20
176.687061
 30
0.0
 11
237.0915615
 21
176.687061
 31
0.0
  0
LINE
  5
3F7
100
AcDbEntity
  8
4
100
AcDbLine
 10
237.6748955
 20
173.770392
 30
0.0
 11
238.1610065
 21
176.687061
 31
0.0
  0
LINE
  5
3F8
100
AcDbEntity
  8
4
100
AcDbLine
 10
237.1887845
 20
176.687061
 30
0.0
 11
237.6748955
 21
173.770392
 31
0.0
  0
LINE
  5
3F9
100
AcDbEntity
  8
4
100
AcDbLine
 10
237.6748955
 20
174.353726
 30
0.0
 11
238.0637845
 21
176.687061
 31
0.0
  0
LINE
  5
3FA
100
AcDbEntity
  8
4
100
AcDbLine
 10
237.2860065
 20
176.687061
 30
0.0
 11
237.6748955
 21
174.353726
 31
0.0
  0
LINE
  5
3FB
100
AcDbEntity
  8
4
100
AcDbLine
 10
237.6748955
 20
174.937059
 30
0.0
 11
237.9665625
 21
176.687061
 31
0.0
  0
LINE
  5
3FC
100
AcDbEntity
  8
4
100
AcDbLine
 10
237.3832285
 20
176.687061
 30
0.0
 11
237.6748955
 21
174.937059
 31
0.0
  0
LINE
  5
3FD
100
AcDbEntity
  8
4
100
AcDbLine
 10
237.6748955
 20
175.520393
 30
0.0
 11
237.8693405
 21
176.687061
 31
0.0
  0
LINE
  5
3FE
100
AcDbEntity
  8
4
100
AcDbLine
 10
237.4804505
 20
176.687061
 30
0.0
 11
237.6748955
 21
175.520393
 31
0.0
  0
LINE
  5
3FF
100
AcDbEntity
  8
4
100
AcDbLine
 10
237.6748955
 20
176.103727
 30
0.0
 11
237.7721175
 21
176.687061
 31
0.0
  0
LINE
  5
400
100
AcDbEntity
  8
4
100
AcDbLine
 10
237.5776735
 20
176.687061
 30
0.0
 11
237.6748955
 21
176.103727
 31
0.0
  0
LINE
  5
401
100
AcDbEntity
  8
4
100
AcDbLine
 10
237.6748955
 20
171.687058
 30
0.0
 11
238.2582295
 21
168.187055
 31
0.0
  0
LINE
  5
402
100
AcDbEntity
  8
4
100
AcDbLine
 10
237.0915615
 20
168.187055
 30
0.0
 11
237.6748955
 21
171.687058
 31
0.0
  0
LINE
  5
403
100
AcDbEntity
  8
4
100
AcDbLine
 10
238.2582295
 20
168.187055
 30
0.0
 11
237.0915615
 21
168.187055
 31
0.0
  0
LINE
  5
404
100
AcDbEntity
  8
4
100
AcDbLine
 10
237.6748955
 20
171.103724
 30
0.0
 11
238.1610065
 21
168.187055
 31
0.0
  0
LINE
  5
405
100
AcDbEntity
  8
4
100
AcDbLine
 10
237.1887845
 20
168.187055
 30
0.0
 11
237.6748955
 21
171.103724
 31
0.0
  0
LINE
  5
406
100
AcDbEntity
  8
4
100
AcDbLine
 10
237.6748955
 20
170.52039
 30
0.0
 11
238.0637845
 21
168.187055
 31
0.0
  0
LINE
  5
407
100
AcDbEntity
  8
4
100
AcDbLine
 10
237.2860065
 20
168.187055
 30
0.0
 11
237.6748955
 21
170.52039
 31
0.0
  0
LINE
  5
408
100
AcDbEntity
  8
4
100
AcDbLine
 10
237.6748955
 20
169.937057
 30
0.0
 11
237.9665625
 21
168.187055
 31
0.0
  0
LINE
  5
409
100
AcDbEntity
  8
4
100
AcDbLine
 10
237.3832285
 20
168.187055
 30
0.0
 11
237.6748955
 21
169.937057
 31
0.0
  0
LINE
  5
40A
100
AcDbEntity
  8
4
100
AcDbLine
 10
237.6748955
 20
169.353723
 30
0.0
 11
237.8693405
 21
168.187055
 31
0.0
  0
LINE
  5
40B
100
AcDbEntity
  8
4
100
AcDbLine
 10
237.4804505
 20
168.187055
 30
0.0
 11
237.6748955
 21
169.353723
 31
0.0
  0
LINE
  5
40C
100
AcDbEntity
  8
4
100
AcDbLine
 10
237.6748955
 20
168.770389
 30
0.0
 11
237.7721175
 21
168.187055
 31
0.0
  0
LINE
  5
40D
100
AcDbEntity
  8
4
100
AcDbLine
 10
237.5776735
 20
168.187055
 30
0.0
 11
237.6748955
 21
168.770389
 31
0.0
  0
LINE
  5
40E
100
AcDbEntity
  8
4
100
AcDbLine
 10
237.6748955
 20
173.187058
 30
0.0
 11
237.6748955
 21
189.315156
 31
0.0
  0
LINE
  5
40F
100
AcDbEntity
  8
4
100
AcDbLine
 10
237.6748955
 20
171.687058
 30
0.0
 11
237.6748955
 21
173.187058
 31
0.0
  0
LINE
  5
410
100
AcDbEntity
  8
4
100
AcDbLine
 10
237.6748955
 20
164.687058
 30
0.0
 11
237.6748955
 21
171.687058
 31
0.0
  0
LINE
  5
411
100
AcDbEntity
  8
4
100
AcDbLine
 10
236.6748955
 20
173.187058
 30
0.0
 11
245.0738065
 21
173.187058
 31
0.0
  0
LINE
  5
412
100
AcDbEntity
  8
4
100
AcDbLine
 10
236.6748955
 20
171.687058
 30
0.0
 11
254.8737945
 21
171.687058
 31
0.0
  0
POINT
  5
413
100
AcDbEntity
  8
DEFPOINTS
100
AcDbPoint
 10
246.0738065
 20
173.187058
 30
0.0
  0
POINT
  5
414
100
AcDbEntity
  8
DEFPOINTS
100
AcDbPoint
 10
255.8737945
 20
171.687058
 30
0.0
  0
ENDBLK
  5
415
100
AcDbEntity
  8
0
 62
       179
100
AcDbBlockEnd
  0
BLOCK
  5
418
100
AcDbEntity
  8
0
 62
       179
100
AcDbBlockBegin
  2
*D30
 70
         1
 10
0.0
 20
0.0
 30
0.0
  3
*D30
  1

  0
MTEXT
  5
419
100
AcDbEntity
  8
4
100
AcDbMText
 10
211.2055054418
 20
165.7131988451
 30
0.0
 40
3.5
 41
0.0
 71
         1
 72
         1
  1
Ø50
  7
SLDTEXTSTYLE4
 11
0.0
 21
1.0
 31
0.0
  0
LINE
  5
41A
100
AcDbEntity
  8
4
100
AcDbLine
 10
264.9738065
 20
143.187058
 30
0.0
 11
216.2055055
 21
143.187058
 31
0.0
  0
LINE
  5
41B
100
AcDbEntity
  8
4
100
AcDbLine
 10
264.9738065
 20
193.187058
 30
0.0
 11
216.2055055
 21
193.187058
 31
0.0
  0
LINE
  5
41C
100
AcDbEntity
  8
4
100
AcDbLine
 10
216.7055055
 20
146.687058
 30
0.0
 11
216.7055055
 21
189.687058
 31
0.0
  0
SOLID
  5
41D
100
AcDbEntity
  8
0
  6
CONTINUOUS
100
AcDbTrace
 10
216.7055055
 20
143.187058
 30
0.0
 11
217.2888388333
 21
146.687058
 31
0.0
 12
216.1221721667
 22
146.687058
 32
0.0
 13
216.1221721667
 23
146.687058
 33
0.0
  0
SOLID
  5
41E
100
AcDbEntity
  8
0
  6
CONTINUOUS
100
AcDbTrace
 10
216.7055055
 20
193.187058
 30
0.0
 11
217.2888388333
 21
189.687058
 31
0.0
 12
216.1221721667
 22
189.687058
 32
0.0
 13
216.1221721667
 23
189.687058
 33
0.0
  0
POINT
  5
41F
100
AcDbEntity
  8
DEFPOINTS
100
AcDbPoint
 10
265.0738065
 20
193.187058
 30
0.0
  0
POINT
  5
420
100
AcDbEntity
  8
DEFPOINTS
100
AcDbPoint
 10
265.0738065
 20
143.187058
 30
0.0
  0
ENDBLK
  5
421
100
AcDbEntity
  8
0
 62
       179
100
AcDbBlockEnd
  0
BLOCK
  5
424
100
AcDbEntity
  8
0
 62
       179
100
AcDbBlockBegin
  2
*D31
 70
         1
 10
0.0
 20
0.0
 30
0.0
  3
*D31
  1

  0
MTEXT
  5
425
100
AcDbEntity
  8
4
100
AcDbMText
 10
374.2554758962
 20
165.7197651923
 30
0.0
 40
3.5
 41
0.0
 71
         1
 72
         1
  1
Ø82
  7
SLDTEXTSTYLE4
 11
0.0
 21
1.0
 31
0.0
  0
LINE
  5
426
100
AcDbEntity
  8
4
100
AcDbLine
 10
346.7096955
 20
127.187058
 30
0.0
 11
380.2554759544
 21
127.187058
 31
0.0
  0
LINE
  5
427
100
AcDbEntity
  8
4
100
AcDbLine
 10
346.7096955
 20
209.187058
 30
0.0
 11
380.2554759544
 21
209.187058
 31
0.0
  0
LINE
  5
428
100
AcDbEntity
  8
4
100
AcDbLine
 10
379.7554759544
 20
130.687058
 30
0.0
 11
379.7554759544
 21
205.687058
 31
0.0
  0
SOLID
  5
429
100
AcDbEntity
  8
0
  6
CONTINUOUS
100
AcDbTrace
 10
379.7554759544
 20
127.187058
 30
0.0
 11
380.3388092877
 21
130.687058
 31
0.0
 12
379.172142621
 22
130.687058
 32
0.0
 13
379.172142621
 23
130.687058
 33
0.0
  0
SOLID
  5
42A
100
AcDbEntity
  8
0
  6
CONTINUOUS
100
AcDbTrace
 10
379.7554759544
 20
209.187058
 30
0.0
 11
380.3388092877
 21
205.687058
 31
0.0
 12
379.172142621
 22
205.687058
 32
0.0
 13
379.172142621
 23
205.687058
 33
0.0
  0
POINT
  5
42B
100
AcDbEntity
  8
DEFPOINTS
100
AcDbPoint
 10
346.6096955
 20
209.187058
 30
0.0
  0
POINT
  5
42C
100
AcDbEntity
  8
DEFPOINTS
100
AcDbPoint
 10
346.6096955
 20
127.187058
 30
0.0
  0
ENDBLK
  5
42D
100
AcDbEntity
  8
0
 62
       179
100
AcDbBlockEnd
  0
ENDSEC
  0
SECTION
  2
ENTITIES
  0
LINE
  5
26B
100
AcDbEntity
  8
1
  6
CONTINUOUS
 62
       179
100
AcDbLine
 10
254.8501885
 20
173.187058
 30
0.0
 11
254.9190065
 21
172.172578
 31
0.0
  0
LINE
  5
26C
100
AcDbEntity
  8
1
  6
CONTINUOUS
 62
       179
100
AcDbLine
 10
254.9190065
 20
172.172578
 30
0.0
 11
255.5521235
 21
170.321382
 31
0.0
  0
LINE
  5
26D
100
AcDbEntity
  8
1
  6
CONTINUOUS
 62
       179
100
AcDbLine
 10
255.5521235
 20
170.321382
 30
0.0
 11
257.8987885
 21
169.378587
 31
0.0
  0
LINE
  5
26E
100
AcDbEntity
  8
1
  6
CONTINUOUS
 62
       179
100
AcDbLine
 10
257.8987885
 20
169.378587
 30
0.0
 11
259.9358065
 21
169.268479
 31
0.0
  0
LINE
  5
26F
100
AcDbEntity
  8
1
  6
CONTINUOUS
 62
       179
100
AcDbLine
 10
259.9358065
 20
169.268479
 30
0.0
 11
261.6906275
 21
169.997941
 31
0.0
  0
LINE
  5
270
100
AcDbEntity
  8
1
  6
CONTINUOUS
 62
       179
100
AcDbLine
 10
261.6906275
 20
169.997941
 30
0.0
 11
263.1220245
 21
172.138169
 31
0.0
  0
LINE
  5
271
100
AcDbEntity
  8
1
  6
CONTINUOUS
 62
       179
100
AcDbLine
 10
263.1220245
 20
172.138169
 30
0.0
 11
263.1220245
 21
173.187058
 31
0.0
  0
LINE
  5
272
100
AcDbEntity
  8
1
  6
CONTINUOUS
 62
       179
100
AcDbLine
 10
263.1220245
 20
173.187058
 30
0.0
 11
261.8737945
 21
173.187058
 31
0.0
  0
LINE
  5
273
100
AcDbEntity
  8
1
  6
CONTINUOUS
 62
       179
100
AcDbLine
 10
261.8737945
 20
173.187058
 30
0.0
 11
261.8737945
 21
171.687058
 31
0.0
  0
LINE
  5
274
100
AcDbEntity
  8
1
  6
CONTINUOUS
 62
       179
100
AcDbLine
 10
261.8737945
 20
171.687058
 30
0.0
 11
258.8737945
 21
169.955018
 31
0.0
  0
LINE
  5
275
100
AcDbEntity
  8
1
  6
CONTINUOUS
 62
       179
100
AcDbLine
 10
258.8737945
 20
169.955018
 30
0.0
 11
255.8737945
 21
171.687058
 31
0.0
  0
LINE
  5
276
100
AcDbEntity
  8
1
  6
CONTINUOUS
 62
       179
100
AcDbLine
 10
255.8737945
 20
171.687058
 30
0.0
 11
255.8737945
 21
173.171189
 31
0.0
  0
LINE
  5
277
100
AcDbEntity
  8
1
  6
CONTINUOUS
 62
       179
100
AcDbLine
 10
255.8737945
 20
173.171189
 30
0.0
 11
254.8501885
 21
173.187058
 31
0.0
  0
LINE
  5
278
100
AcDbEntity
  8
1
  6
CONTINUOUS
 62
       179
100
AcDbLine
 10
272.1781765
 20
114.607972
 30
0.0
 11
286.8613435
 21
82.456864
 31
0.0
  0
LINE
  5
279
100
AcDbEntity
  8
1
  6
CONTINUOUS
 62
       179
100
AcDbLine
 10
286.8613435
 20
82.456864
 30
0.0
 11
336.9867095
 21
82.456864
 31
0.0
  0
LINE
  5
27A
100
AcDbEntity
  8
1
  6
CONTINUOUS
 62
       179
100
AcDbLine
 10
336.9867095
 20
82.456864
 30
0.0
 11
346.8598785
 21
82.456864
 31
0.0
  0
LINE
  5
27B
100
AcDbEntity
  8
1
  6
CONTINUOUS
 62
       179
100
AcDbLine
 10
221.5464935
 20
120.687058
 30
0.0
 11
250.1533965
 21
120.687058
 31
0.0
  0
LINE
  5
27C
100
AcDbEntity
  8
1
  6
CONTINUOUS
 62
       179
100
AcDbLine
 10
225.3438715
 20
96.38057
 30
0.0
 11
225.3438715
 21
120.687058
 31
0.0
  0
LINE
  5
27D
100
AcDbEntity
  8
1
  6
CONTINUOUS
 62
       179
100
AcDbLine
 10
69.8337325
 20
29.207418
 30
0.0
 11
69.8337325
 21
43.45823
 31
0.0
  0
LINE
  5
27E
100
AcDbEntity
  8
1
  6
CONTINUOUS
 62
       179
100
AcDbLine
 10
61.8715585
 20
34.793241
 30
0.0
 11
77.8578415
 21
34.793241
 31
0.0
  0
LINE
  5
27F
100
AcDbEntity
  8
1
  6
CONTINUOUS
 62
       179
100
AcDbLine
 10
58.8337325
 20
43.45823
 30
0.0
 11
58.8337325
 21
49.45823
 31
0.0
  0
LINE
  5
280
100
AcDbEntity
  8
1
  6
CONTINUOUS
 62
       179
100
AcDbLine
 10
90.8337325
 20
46.45823
 30
0.0
 11
80.8337325
 21
46.45823
 31
0.0
  0
LINE
  5
281
100
AcDbEntity
  8
1
  6
CONTINUOUS
 62
       179
100
AcDbLine
 10
80.8337325
 20
46.45823
 30
0.0
 11
80.8337325
 21
43.45823
 31
0.0
  0
LINE
  5
282
100
AcDbEntity
  8
1
  6
CONTINUOUS
 62
       179
100
AcDbLine
 10
80.8337325
 20
43.45823
 30
0.0
 11
58.8337325
 21
43.45823
 31
0.0
  0
LINE
  5
283
100
AcDbEntity
  8
1
  6
CONTINUOUS
 62
       179
100
AcDbLine
 10
58.8337325
 20
43.45823
 30
0.0
 11
58.8337325
 21
46.45823
 31
0.0
  0
LINE
  5
284
100
AcDbEntity
  8
1
  6
CONTINUOUS
 62
       179
100
AcDbLine
 10
58.8337325
 20
46.45823
 30
0.0
 11
48.8337325
 21
46.45823
 31
0.0
  0
LINE
  5
285
100
AcDbEntity
  8
1
  6
CONTINUOUS
 62
       179
100
AcDbLine
 10
48.8337325
 20
46.45823
 30
0.0
 11
58.8337325
 21
46.45823
 31
0.0
  0
LINE
  5
286
100
AcDbEntity
  8
1
  6
CONTINUOUS
 62
       179
100
AcDbLine
 10
58.8337325
 20
46.45823
 30
0.0
 11
58.8337325
 21
49.45823
 31
0.0
  0
LINE
  5
287
100
AcDbEntity
  8
1
  6
CONTINUOUS
 62
       179
100
AcDbLine
 10
58.8337325
 20
49.45823
 30
0.0
 11
80.8337325
 21
49.45823
 31
0.0
  0
LINE
  5
288
100
AcDbEntity
  8
1
  6
CONTINUOUS
 62
       179
100
AcDbLine
 10
80.8337325
 20
49.45823
 30
0.0
 11
80.8337325
 21
46.45823
 31
0.0
  0
LINE
  5
289
100
AcDbEntity
  8
1
  6
CONTINUOUS
 62
         2
100
AcDbLine
 10
38.9022065
 20
57.759683
 30
0.0
 11
73.9164965
 21
57.759683
 31
0.0
  0
LINE
  5
28A
100
AcDbEntity
  8
1
  6
HIDDEN
 62
         1
100
AcDbLine
 10
256.0738065
 20
159.346742
 30
0.0
 11
256.0738065
 21
99.687013
 31
0.0
  0
LINE
  5
28B
100
AcDbEntity
  8
1
  6
HIDDEN
 62
         1
100
AcDbLine
 10
256.0738065
 20
99.687013
 30
0.0
 11
268.0738065
 21
99.687013
 31
0.0
  0
LINE
  5
28C
100
AcDbEntity
  8
1
  6
HIDDEN
 62
         1
100
AcDbLine
 10
268.0738065
 20
99.687013
 30
0.0
 11
268.0738065
 21
118.187058
 31
0.0
  0
LINE
  5
28D
100
AcDbEntity
  8
1
  6
HIDDEN
 62
         1
100
AcDbLine
 10
268.0738065
 20
123.187058
 30
0.0
 11
268.0738065
 21
127.187028
 31
0.0
  0
LINE
  5
28E
100
AcDbEntity
  8
1
  6
CONTINUOUS
 62
       179
100
AcDbLine
 10
269.0738065
 20
117.687058
 30
0.0
 11
276.0738065
 21
117.687058
 31
0.0
  0
LINE
  5
28F
100
AcDbEntity
  8
1
  6
CONTINUOUS
 62
       179
100
AcDbLine
 10
276.0738065
 20
117.687058
 30
0.0
 11
276.0738065
 21
112.687058
 31
0.0
  0
LINE
  5
290
100
AcDbEntity
  8
1
  6
CONTINUOUS
 62
       179
100
AcDbLine
 10
276.0738065
 20
112.687058
 30
0.0
 11
268.0738065
 21
112.687058
 31
0.0
  0
LINE
  5
291
100
AcDbEntity
  8
1
  6
CONTINUOUS
 62
       179
100
AcDbLine
 10
268.0738065
 20
112.687058
 30
0.0
 11
268.0738065
 21
114.687058
 31
0.0
  0
LINE
  5
292
100
AcDbEntity
  8
1
  6
CONTINUOUS
 62
       179
100
AcDbLine
 10
268.0738065
 20
114.687058
 30
0.0
 11
269.0738065
 21
114.687058
 31
0.0
  0
LINE
  5
293
100
AcDbEntity
  8
1
  6
CONTINUOUS
 62
       179
100
AcDbLine
 10
269.0738065
 20
114.687058
 30
0.0
 11
269.0738065
 21
117.687058
 31
0.0
  0
LINE
  5
294
100
AcDbEntity
  8
1
  6
CONTINUOUS
 62
       179
100
AcDbLine
 10
269.0738065
 20
123.687058
 30
0.0
 11
276.0738065
 21
123.687058
 31
0.0
  0
LINE
  5
295
100
AcDbEntity
  8
1
  6
CONTINUOUS
 62
       179
100
AcDbLine
 10
276.0738065
 20
123.687058
 30
0.0
 11
276.0738065
 21
130.687058
 31
0.0
  0
LINE
  5
296
100
AcDbEntity
  8
1
  6
CONTINUOUS
 62
       179
100
AcDbLine
 10
276.0738065
 20
130.687058
 30
0.0
 11
273.0738065
 21
130.687058
 31
0.0
  0
LINE
  5
297
100
AcDbEntity
  8
1
  6
CONTINUOUS
 62
       179
100
AcDbLine
 10
273.0738065
 20
130.687058
 30
0.0
 11
273.0738065
 21
125.187028
 31
0.0
  0
LINE
  5
298
100
AcDbEntity
  8
1
  6
CONTINUOUS
 62
       179
100
AcDbLine
 10
273.0738065
 20
125.187028
 30
0.0
 11
269.0738065
 21
125.187028
 31
0.0
  0
LINE
  5
299
100
AcDbEntity
  8
1
  6
CONTINUOUS
 62
       179
100
AcDbLine
 10
269.0738065
 20
125.187028
 30
0.0
 11
269.0738065
 21
123.687058
 31
0.0
  0
LINE
  5
29A
100
AcDbEntity
  8
1
  6
CONTINUOUS
 62
       179
100
AcDbLine
 10
256.0738065
 20
123.187058
 30
0.0
 11
259.0738065
 21
123.187058
 31
0.0
  0
LINE
  5
29B
100
AcDbEntity
  8
1
  6
CONTINUOUS
 62
       179
100
AcDbLine
 10
256.0738065
 20
118.187058
 30
0.0
 11
259.0738065
 21
118.187058
 31
0.0
  0
LINE
  5
29C
100
AcDbEntity
  8
1
  6
CONTINUOUS
 62
       179
100
AcDbLine
 10
258.0738065
 20
119.187058
 30
0.0
 11
273.0738065
 21
119.187058
 31
0.0
  0
LINE
  5
29D
100
AcDbEntity
  8
1
  6
CONTINUOUS
 62
       179
100
AcDbLine
 10
258.0738065
 20
122.187058
 30
0.0
 11
273.0738065
 21
122.187058
 31
0.0
  0
LINE
  5
29E
100
AcDbEntity
  8
1
  6
CONTINUOUS
 62
       179
100
AcDbLine
 10
108.6795575
 20
152.187058
 30
0.0
 11
97.6795575
 21
152.187058
 31
0.0
  0
LINE
  5
29F
100
AcDbEntity
  8
1
  6
CONTINUOUS
 62
       179
100
AcDbLine
 10
97.6795575
 20
152.187058
 30
0.0
 11
97.6795575
 21
184.187058
 31
0.0
  0
LINE
  5
2A0
100
AcDbEntity
  8
1
  6
CONTINUOUS
 62
       179
100
AcDbLine
 10
97.6795575
 20
184.187058
 30
0.0
 11
105.6795575
 21
184.187058
 31
0.0
  0
LINE
  5
2A1
100
AcDbEntity
  8
1
  6
CONTINUOUS
 62
       179
100
AcDbLine
 10
105.6795575
 20
184.187058
 30
0.0
 11
105.6795575
 21
152.187058
 31
0.0
  0
LINE
  5
2A2
100
AcDbEntity
  8
1
  6
CONTINUOUS
 62
       179
100
AcDbLine
 10
86.6795575
 20
154.187058
 30
0.0
 11
90.6795575
 21
154.187058
 31
0.0
  0
LINE
  5
2A3
100
AcDbEntity
  8
1
  6
CONTINUOUS
 62
       179
100
AcDbLine
 10
90.6795575
 20
154.187058
 30
0.0
 11
90.6795575
 21
182.187058
 31
0.0
  0
LINE
  5
2A4
100
AcDbEntity
  8
1
  6
CONTINUOUS
 62
       179
100
AcDbLine
 10
90.6795575
 20
182.187058
 30
0.0
 11
86.6795575
 21
182.187058
 31
0.0
  0
LINE
  5
2A5
100
AcDbEntity
  8
1
  6
CONTINUOUS
 62
       179
100
AcDbLine
 10
86.6795575
 20
182.187058
 30
0.0
 11
86.6795575
 21
154.187058
 31
0.0
  0
LINE
  5
2A6
100
AcDbEntity
  8
22
  6
HIDDEN
 62
         1
100
AcDbLine
 10
9.9999885
 20
9.999999
 30
0.0
 11
222.9999845
 21
9.999999
 31
0.0
  0
LINE
  5
2A7
100
AcDbEntity
  8
22
  6
HIDDEN
 62
         1
100
AcDbLine
 10
222.9999845
 20
9.999999
 30
0.0
 11
222.9999845
 21
56.530023
 31
0.0
  0
LINE
  5
2A8
100
AcDbEntity
  8
22
  6
HIDDEN
 62
         1
100
AcDbLine
 10
222.9999845
 20
56.530023
 30
0.0
 11
409.9999845
 21
56.530023
 31
0.0
  0
LINE
  5
2A9
100
AcDbEntity
  8
22
  6
HIDDEN
 62
         1
100
AcDbLine
 10
409.9999845
 20
56.530023
 30
0.0
 11
409.9999845
 21
287.000001
 31
0.0
  0
LINE
  5
2AA
100
AcDbEntity
  8
22
  6
HIDDEN
 62
         1
100
AcDbLine
 10
409.9999845
 20
287.000001
 30
0.0
 11
196.9999695
 21
287.000001
 31
0.0
  0
LINE
  5
2AB
100
AcDbEntity
  8
22
  6
HIDDEN
 62
         1
100
AcDbLine
 10
196.9999695
 20
287.000001
 30
0.0
 11
196.9999695
 21
277.000001
 31
0.0
  0
LINE
  5
2AC
100
AcDbEntity
  8
22
  6
HIDDEN
 62
         1
100
AcDbLine
 10
196.9999695
 20
277.000001
 30
0.0
 11
9.9999885
 21
277.000001
 31
0.0
  0
LINE
  5
2AD
100
AcDbEntity
  8
22
  6
HIDDEN
 62
         1
100
AcDbLine
 10
9.9999885
 20
277.000001
 30
0.0
 11
9.9999885
 21
9.999999
 31
0.0
  0
LINE
  5
2AE
100
AcDbEntity
  8
2
  6
CONTINUOUS
 62
       179
100
AcDbLine
 10
222.9999845
 20
56.530023
 30
0.0
 11
409.9999845
 21
56.530023
 31
0.0
  0
LINE
  5
2AF
100
AcDbEntity
  8
2
  6
CONTINUOUS
 62
       179
100
AcDbLine
 10
222.9999845
 20
52.300027
 30
0.0
 11
409.9999845
 21
52.300027
 31
0.0
  0
LINE
  5
2B0
100
AcDbEntity
  8
2
  6
CONTINUOUS
 62
       179
100
AcDbLine
 10
395.6349635
 20
48.070001
 30
0.0
 11
395.6349635
 21
56.530023
 31
0.0
  0
LINE
  5
2B1
100
AcDbEntity
  8
2
  6
CONTINUOUS
 62
       179
100
AcDbLine
 10
381.2699735
 20
48.070001
 30
0.0
 11
381.2699735
 21
56.530023
 31
0.0
  0
LINE
  5
2B2
100
AcDbEntity
  8
2
  6
CONTINUOUS
 62
       179
100
AcDbLine
 10
366.9049835
 20
48.070001
 30
0.0
 11
366.9049835
 21
56.530023
 31
0.0
  0
LINE
  5
2B3
100
AcDbEntity
  8
2
  6
CONTINUOUS
 62
       179
100
AcDbLine
 10
352.5399625
 20
48.070001
 30
0.0
 11
352.5399625
 21
56.530023
 31
0.0
  0
LINE
  5
2B4
100
AcDbEntity
  8
2
  6
CONTINUOUS
 62
       179
100
AcDbLine
 10
334.7599635
 20
48.070001
 30
0.0
 11
334.7599635
 21
56.530023
 31
0.0
  0
LINE
  5
2B5
100
AcDbEntity
  8
2
  6
CONTINUOUS
 62
       179
100
AcDbLine
 10
245.8599695
 20
48.070001
 30
0.0
 11
245.8599695
 21
56.530023
 31
0.0
  0
LINE
  5
2B6
100
AcDbEntity
  8
2
  6
CONTINUOUS
 62
       179
100
AcDbLine
 10
230.6199945
 20
48.070001
 30
0.0
 11
230.6199945
 21
56.530023
 31
0.0
  0
LINE
  5
2B7
100
AcDbEntity
  8
2
  6
CONTINUOUS
 62
       179
100
AcDbLine
 10
309.3600005
 20
43.840005
 30
0.0
 11
352.5399625
 21
43.840005
 31
0.0
  0
LINE
  5
2B8
100
AcDbEntity
  8
2
  6
CONTINUOUS
 62
       179
100
AcDbLine
 10
309.3600005
 20
39.610009
 30
0.0
 11
352.5399625
 21
39.610009
 31
0.0
  0
LINE
  5
2B9
100
AcDbEntity
  8
2
  6
CONTINUOUS
 62
       179
100
AcDbLine
 10
309.3600005
 20
35.380004
 30
0.0
 11
352.5399625
 21
35.380004
 31
0.0
  0
LINE
  5
2BA
100
AcDbEntity
  8
2
  6
CONTINUOUS
 62
       179
100
AcDbLine
 10
309.3600005
 20
31.150008
 30
0.0
 11
352.5399625
 21
31.150008
 31
0.0
  0
LINE
  5
2BB
100
AcDbEntity
  8
2
  6
CONTINUOUS
 62
       179
100
AcDbLine
 10
319.5200045
 20
26.920013
 30
0.0
 11
319.5200045
 21
48.070001
 31
0.0
  0
LINE
  5
2BC
100
AcDbEntity
  8
2
  6
CONTINUOUS
 62
       179
100
AcDbLine
 10
334.7599635
 20
26.920028
 30
0.0
 11
334.7599635
 21
48.070001
 31
0.0
  0
LINE
  5
2BD
100
AcDbEntity
  8
2
  6
CONTINUOUS
 62
       179
100
AcDbLine
 10
222.9999845
 20
56.530023
 30
0.0
 11
222.9999845
 21
48.070001
 31
0.0
  0
LINE
  5
2BE
100
AcDbEntity
  8
2
  6
CONTINUOUS
 62
       179
100
AcDbLine
 10
222.9999845
 20
48.070001
 30
0.0
 11
222.9999845
 21
9.999999
 31
0.0
  0
LINE
  5
2BF
100
AcDbEntity
  8
2
  6
CONTINUOUS
 62
       179
100
AcDbLine
 10
222.9999845
 20
9.999999
 30
0.0
 11
9.9999885
 21
9.999999
 31
0.0
  0
LINE
  5
2C0
100
AcDbEntity
  8
2
  6
CONTINUOUS
 62
       179
100
AcDbLine
 10
9.9999885
 20
9.999999
 30
0.0
 11
9.9999885
 21
287.000001
 31
0.0
  0
LINE
  5
2C1
100
AcDbEntity
  8
2
  6
CONTINUOUS
 62
       179
100
AcDbLine
 10
9.9999885
 20
287.000001
 30
0.0
 11
409.9999845
 21
287.000001
 31
0.0
  0
LINE
  5
2C2
100
AcDbEntity
  8
2
  6
CONTINUOUS
 62
       179
100
AcDbLine
 10
409.9999845
 20
287.000001
 30
0.0
 11
409.9999845
 21
9.999999
 31
0.0
  0
LINE
  5
2C3
100
AcDbEntity
  8
2
  6
CONTINUOUS
 62
       179
100
AcDbLine
 10
409.9999845
 20
9.999999
 30
0.0
 11
222.9999845
 21
9.999999
 31
0.0
  0
LINE
  5
2C4
100
AcDbEntity
  8
2
  6
CONTINUOUS
 62
       179
100
AcDbLine
 10
209.9999995
 20
4.999999
 30
0.0
 11
209.9999995
 21
9.999999
 31
0.0
  0
LINE
  5
2C5
100
AcDbEntity
  8
2
  6
CONTINUOUS
 62
       179
100
AcDbLine
 10
159.9999845
 20
4.999999
 30
0.0
 11
159.9999845
 21
9.999999
 31
0.0
  0
LINE
  5
2C6
100
AcDbEntity
  8
2
  6
CONTINUOUS
 62
       179
100
AcDbLine
 10
109.9999925
 20
4.999999
 30
0.0
 11
109.9999925
 21
9.999999
 31
0.0
  0
LINE
  5
2C7
100
AcDbEntity
  8
2
  6
CONTINUOUS
 62
       179
100
AcDbLine
 10
59.9999925
 20
4.999999
 30
0.0
 11
59.9999925
 21
9.999999
 31
0.0
  0
LINE
  5
2C8
100
AcDbEntity
  8
2
  6
CONTINUOUS
 62
       179
100
AcDbLine
 10
9.9999885
 20
4.999999
 30
0.0
 11
9.9999885
 21
9.999999
 31
0.0
  0
LINE
  5
2C9
100
AcDbEntity
  8
2
  6
CONTINUOUS
 62
       179
100
AcDbLine
 10
4.9999845
 20
48.500001
 30
0.0
 11
9.9999885
 21
48.500001
 31
0.0
  0
LINE
  5
2CA
100
AcDbEntity
  8
2
  6
CONTINUOUS
 62
       179
100
AcDbLine
 10
4.9999845
 20
98.500001
 30
0.0
 11
9.9999845
 21
98.500001
 31
0.0
  0
LINE
  5
2CB
100
AcDbEntity
  8
2
  6
CONTINUOUS
 62
       179
100
AcDbLine
 10
4.9999845
 20
148.500001
 30
0.0
 11
9.9999845
 21
148.500001
 31
0.0
  0
LINE
  5
2CC
100
AcDbEntity
  8
2
  6
CONTINUOUS
 62
       179
100
AcDbLine
 10
4.9999845
 20
198.500001
 30
0.0
 11
9.9999845
 21
198.500001
 31
0.0
  0
LINE
  5
2CD
100
AcDbEntity
  8
2
  6
CONTINUOUS
 62
       179
100
AcDbLine
 10
4.9999845
 20
248.500032
 30
0.0
 11
9.9999845
 21
248.500032
 31
0.0
  0
LINE
  5
2CE
100
AcDbEntity
  8
2
  6
CONTINUOUS
 62
       179
100
AcDbLine
 10
9.9999885
 20
277.000001
 30
0.0
 11
196.9999695
 21
277.000001
 31
0.0
  0
LINE
  5
2CF
100
AcDbEntity
  8
2
  6
CONTINUOUS
 62
       179
100
AcDbLine
 10
196.9999695
 20
277.000001
 30
0.0
 11
196.9999695
 21
287.000001
 31
0.0
  0
LINE
  5
2D0
100
AcDbEntity
  8
2
  6
CONTINUOUS
 62
       179
100
AcDbLine
 10
9.9999885
 20
287.000001
 30
0.0
 11
9.9999885
 21
292.000001
 31
0.0
  0
LINE
  5
2D1
100
AcDbEntity
  8
2
  6
CONTINUOUS
 62
       179
100
AcDbLine
 10
59.9999925
 20
287.000001
 30
0.0
 11
59.9999925
 21
292.000001
 31
0.0
  0
LINE
  5
2D2
100
AcDbEntity
  8
2
  6
CONTINUOUS
 62
       179
100
AcDbLine
 10
109.9999925
 20
287.000001
 30
0.0
 11
109.9999925
 21
292.000001
 31
0.0
  0
LINE
  5
2D3
100
AcDbEntity
  8
2
  6
CONTINUOUS
 62
       179
100
AcDbLine
 10
159.9999845
 20
287.000001
 30
0.0
 11
159.9999845
 21
292.000001
 31
0.0
  0
LINE
  5
2D4
100
AcDbEntity
  8
2
  6
CONTINUOUS
 62
       179
100
AcDbLine
 10
209.9999995
 20
287.000001
 30
0.0
 11
209.9999995
 21
292.000001
 31
0.0
  0
LINE
  5
2D5
100
AcDbEntity
  8
2
  6
CONTINUOUS
 62
       179
100
AcDbLine
 10
259.9999845
 20
287.000001
 30
0.0
 11
259.9999845
 21
292.000001
 31
0.0
  0
LINE
  5
2D6
100
AcDbEntity
  8
2
  6
CONTINUOUS
 62
       179
100
AcDbLine
 10
310.0000155
 20
287.000001
 30
0.0
 11
310.0000155
 21
292.000001
 31
0.0
  0
LINE
  5
2D7
100
AcDbEntity
  8
2
  6
CONTINUOUS
 62
       179
100
AcDbLine
 10
360.0000155
 20
287.000001
 30
0.0
 11
360.0000155
 21
292.000001
 31
0.0
  0
LINE
  5
2D8
100
AcDbEntity
  8
2
  6
CONTINUOUS
 62
       179
100
AcDbLine
 10
409.9999845
 20
287.000001
 30
0.0
 11
409.9999845
 21
292.000001
 31
0.0
  0
LINE
  5
2D9
100
AcDbEntity
  8
2
  6
CONTINUOUS
 62
       179
100
AcDbLine
 10
409.9999845
 20
248.500032
 30
0.0
 11
414.9999845
 21
248.500032
 31
0.0
  0
LINE
  5
2DA
100
AcDbEntity
  8
2
  6
CONTINUOUS
 62
       179
100
AcDbLine
 10
410.0000455
 20
198.500001
 30
0.0
 11
414.9999845
 21
198.500001
 31
0.0
  0
LINE
  5
2DB
100
AcDbEntity
  8
2
  6
CONTINUOUS
 62
       179
100
AcDbLine
 10
410.0000455
 20
148.500001
 30
0.0
 11
415.0000155
 21
148.500001
 31
0.0
  0
LINE
  5
2DC
100
AcDbEntity
  8
2
  6
CONTINUOUS
 62
       179
100
AcDbLine
 10
409.9999845
 20
98.500001
 30
0.0
 11
415.0000155
 21
98.500001
 31
0.0
  0
LINE
  5
2DD
100
AcDbEntity
  8
2
  6
CONTINUOUS
 62
       179
100
AcDbLine
 10
409.9999845
 20
48.500001
 30
0.0
 11
414.9999845
 21
48.500001
 31
0.0
  0
LINE
  5
2DE
100
AcDbEntity
  8
2
  6
CONTINUOUS
 62
       179
100
AcDbLine
 10
360.0000155
 20
4.999999
 30
0.0
 11
360.0000155
 21
9.999999
 31
0.0
  0
LINE
  5
2DF
100
AcDbEntity
  8
2
  6
CONTINUOUS
 62
       179
100
AcDbLine
 10
310.0000155
 20
4.999999
 30
0.0
 11
310.0000155
 21
9.999999
 31
0.0
  0
LINE
  5
2E0
100
AcDbEntity
  8
2
  6
CONTINUOUS
 62
       179
100
AcDbLine
 10
259.9999845
 20
4.999999
 30
0.0
 11
259.9999845
 21
9.999999
 31
0.0
  0
LINE
  5
2E1
100
AcDbEntity
  8
2
  6
CONTINUOUS
 62
         3
100
AcDbLine
 10
222.9999845
 20
48.070001
 30
0.0
 11
409.9999845
 21
48.070001
 31
0.0
  0
LINE
  5
2E2
100
AcDbEntity
  8
2
  6
CONTINUOUS
 62
         3
100
AcDbLine
 10
222.9999845
 20
39.610009
 30
0.0
 11
309.3600005
 21
39.610009
 31
0.0
  0
LINE
  5
2E3
100
AcDbEntity
  8
2
  6
CONTINUOUS
 62
         3
100
AcDbLine
 10
352.5399625
 20
39.610009
 30
0.0
 11
409.9999845
 21
39.610009
 31
0.0
  0
LINE
  5
2E4
100
AcDbEntity
  8
2
  6
CONTINUOUS
 62
         3
100
AcDbLine
 10
352.5399625
 20
43.840005
 30
0.0
 11
409.9999845
 21
43.840005
 31
0.0
  0
LINE
  5
2E5
100
AcDbEntity
  8
2
  6
CONTINUOUS
 62
         3
100
AcDbLine
 10
352.5399625
 20
35.380004
 30
0.0
 11
409.9999845
 21
35.380004
 31
0.0
  0
LINE
  5
2E6
100
AcDbEntity
  8
2
  6
CONTINUOUS
 62
         3
100
AcDbLine
 10
222.9999845
 20
22.690017
 30
0.0
 11
409.9999845
 21
22.690017
 31
0.0
  0
LINE
  5
2E7
100
AcDbEntity
  8
2
  6
CONTINUOUS
 62
         3
100
AcDbLine
 10
222.9999845
 20
31.150008
 30
0.0
 11
258.5599825
 21
31.150008
 31
0.0
  0
LINE
  5
2E8
100
AcDbEntity
  8
2
  6
CONTINUOUS
 62
         3
100
AcDbLine
 10
309.3600005
 20
26.920013
 30
0.0
 11
352.5399625
 21
26.920013
 31
0.0
  0
LINE
  5
2E9
100
AcDbEntity
  8
2
  6
CONTINUOUS
 62
         3
100
AcDbLine
 10
4.9999845
 20
5.000003
 30
0.0
 11
4.9999845
 21
292.000001
 31
0.0
  0
LINE
  5
2EA
100
AcDbEntity
  8
2
  6
CONTINUOUS
 62
         3
100
AcDbLine
 10
4.9999845
 20
292.000001
 30
0.0
 11
415.0000155
 21
292.000001
 31
0.0
  0
LINE
  5
2EB
100
AcDbEntity
  8
2
  6
CONTINUOUS
 62
         3
100
AcDbLine
 10
415.0000155
 20
292.000001
 30
0.0
 11
415.0000155
 21
5.000003
 31
0.0
  0
LINE
  5
2EC
100
AcDbEntity
  8
2
  6
CONTINUOUS
 62
         3
100
AcDbLine
 10
415.0000155
 20
5.000003
 30
0.0
 11
4.9999845
 21
5.000003
 31
0.0
  0
LINE
  5
2ED
100
AcDbEntity
  8
2
  6
CONTINUOUS
 62
         3
100
AcDbLine
 10
258.5599825
 20
9.999999
 30
0.0
 11
258.5599825
 21
48.070001
 31
0.0
  0
LINE
  5
2EE
100
AcDbEntity
  8
2
  6
CONTINUOUS
 62
         3
100
AcDbLine
 10
283.9600065
 20
39.609994
 30
0.0
 11
283.9600065
 21
48.070001
 31
0.0
  0
LINE
  5
2EF
100
AcDbEntity
  8
2
  6
CONTINUOUS
 62
         3
100
AcDbLine
 10
309.3600005
 20
22.690017
 30
0.0
 11
309.3600005
 21
48.070001
 31
0.0
  0
LINE
  5
2F0
100
AcDbEntity
  8
2
  6
CONTINUOUS
 62
         3
100
AcDbLine
 10
352.5399625
 20
10.000007
 30
0.0
 11
352.5399625
 21
48.070001
 31
0.0
  0
LINE
  5
2F1
100
AcDbEntity
  8
2
  6
CONTINUOUS
 62
         3
100
AcDbLine
 10
381.2699735
 20
22.690017
 30
0.0
 11
381.2699735
 21
35.380004
 31
0.0
  0
LINE
  5
2F2
100
AcDbEntity
  8
2
  6
CONTINUOUS
 62
         3
100
AcDbLine
 10
399.5819855
 20
9.999999
 30
0.0
 11
399.5819855
 21
22.690017
 31
0.0
  0
LINE
  5
2F3
100
AcDbEntity
  8
2
  6
CONTINUOUS
 62
         3
100
AcDbLine
 10
222.9999845
 20
9.999999
 30
0.0
 11
222.9999845
 21
48.070001
 31
0.0
  0
CIRCLE
  5
2F4
100
AcDbEntity
  8
1
  6
CONTINUOUS
 62
       179
100
AcDbCircle
 10
69.8337325
 20
28.207418
 30
0.0
 40
1.0
  0
CIRCLE
  5
2F5
100
AcDbEntity
  8
1
  6
CONTINUOUS
 62
       179
100
AcDbCircle
 10
47.8337325
 20
46.45823
 30
0.0
 40
1.0
  0
CIRCLE
  5
2F6
100
AcDbEntity
  8
1
  6
CONTINUOUS
 62
       179
100
AcDbCircle
 10
91.8337325
 20
46.45823
 30
0.0
 40
1.0
  0
DIMENSION
  5
323
100
AcDbEntity
  8
4
100
AcDbDimension
  2
*D21
 10
261.8737945
 20
202.449311
 30
0.0
 11
248.7721555
 21
202.449311
 31
0.0
 70
       160
  3
SLDDIMSTYLE0
100
AcDbAlignedDimension
 13
255.8737945
 23
172.861405
 33
0.0
 14
261.8737945
 24
173.171189
 34
0.0
100
AcDbRotatedDimension
  0
DIMENSION
  5
349
100
AcDbEntity
  8
4
100
AcDbDimension
  2
*D23
 10
296.4813685
 20
120.687058
 30
0.0
 11
296.4813685
 21
97.056062
 31
0.0
 70
       160
 53
90.0
  3
SLDDIMSTYLE0
100
AcDbAlignedDimension
 13
276.0738065
 23
112.687058
 33
0.0
 14
283.0738065
 24
120.687058
 34
0.0
 50
90.0
100
AcDbRotatedDimension
  0
DIMENSION
  5
36D
100
AcDbEntity
  8
4
100
AcDbDimension
  2
*D24
 10
48.6795535
 20
102.904161
 30
0.0
 11
97.0015565
 21
102.904161
 31
0.0
 70
       160
  3
SLDDIMSTYLE0
100
AcDbAlignedDimension
 13
158.6795495
 23
121.734536
 33
0.0
 14
48.6795535
 24
185.187058
 34
0.0
100
AcDbRotatedDimension
  0
DIMENSION
  5
393
100
AcDbEntity
  8
4
100
AcDbDimension
  2
*D25
 10
237.2423095
 20
118.187058
 30
0.0
 11
237.2423095
 21
130.187058
 31
0.0
 70
       160
 53
90.0
  3
SLDDIMSTYLE0
100
AcDbAlignedDimension
 13
256.0738065
 23
123.187058
 33
0.0
 14
256.0738065
 24
118.187058
 34
0.0
 50
90.0
100
AcDbRotatedDimension
  0
DIMENSION
  5
3A2
100
AcDbEntity
  8
4
100
AcDbDimension
  2
*D26
 10
224.4366071632
 20
163.187058
 30
0.0
 11
224.4366071632
 21
183.6906052974
 31
0.0
 70
       160
 53
90.0
  1
Ø<>
  3
SLDDIMSTYLE1
100
AcDbAlignedDimension
 13
246.0738065
 23
173.187058
 33
0.0
 14
246.0738065
 24
163.187058
 34
0.0
 50
90.0
100
AcDbRotatedDimension
  0
DIMENSION
  5
3C9
100
AcDbEntity
  8
4
100
AcDbDimension
  2
*D27
 10
273.0738065
 20
248.413606
 30
0.0
 11
285.0738065
 21
248.413606
 31
0.0
 70
       160
  3
SLDDIMSTYLE0
100
AcDbAlignedDimension
 13
278.0738065
 23
209.187058
 33
0.0
 14
273.0738065
 24
209.187058
 34
0.0
100
AcDbRotatedDimension
  0
DIMENSION
  5
3F0
100
AcDbEntity
  8
4
100
AcDbDimension
  2
*D28
 10
265.0738065
 20
260.096559
 30
0.0
 11
305.0770415
 21
260.096559
 31
0.0
 70
       160
  3
SLDDIMSTYLE0
100
AcDbAlignedDimension
 13
356.0738065
 23
207.187058
 33
0.0
 14
265.0738065
 24
193.187058
 34
0.0
100
AcDbRotatedDimension
  0
DIMENSION
  5
416
100
AcDbEntity
  8
4
100
AcDbDimension
  2
*D29
 10
237.6748955
 20
171.687058
 30
0.0
 11
237.6748955
 21
175.278199
 31
0.0
 70
       160
 53
90.0
  3
SLDDIMSTYLE0
100
AcDbAlignedDimension
 13
246.0738065
 23
173.187058
 33
0.0
 14
255.8737945
 24
171.687058
 34
0.0
 50
90.0
100
AcDbRotatedDimension
  0
DIMENSION
  5
422
100
AcDbEntity
  8
4
100
AcDbDimension
  2
*D30
 10
213.9555055
 20
143.187058
 30
0.0
 11
213.9555055
 21
168.187058
 31
0.0
 70
       160
 53
90.0
  1
Ø<>
  3
SLDDIMSTYLE1
100
AcDbAlignedDimension
 13
265.0738065
 23
193.187058
 33
0.0
 14
265.0738065
 24
143.187058
 34
0.0
 50
90.0
100
AcDbRotatedDimension
  0
DIMENSION
  5
42E
100
AcDbEntity
  8
4
100
AcDbDimension
  2
*D31
 10
377.0054759544
 20
127.187058
 30
0.0
 11
377.0054759544
 21
168.1936243472
 31
0.0
 70
       160
 53
90.0
  1
Ø<>
  3
SLDDIMSTYLE1
100
AcDbAlignedDimension
 13
346.6096955
 23
209.187058
 33
0.0
 14
346.6096955
 24
127.187058
 34
0.0
 50
90.0
100
AcDbRotatedDimension
  0
MTEXT
  5
42F
100
AcDbEntity
  8
6
 62
         2
100
AcDbMText
 10
161.8219575
 20
18.8069242669
 30
0.0
 40
3.5
 41
0.0
 71
         1
 72
         1
  1
Typ
  7
SLDTEXTSTYLE4
  0
MTEXT
  5
430
100
AcDbEntity
  8
6
 62
         2
100
AcDbMText
 10
148.4499045
 20
41.9591582669
 30
0.0
 40
3.5
 41
0.0
 71
         1
 72
         1
  1
IPS 6501a502.05
  7
SLDTEXTSTYLE4
  0
MTEXT
  5
431
100
AcDbEntity
  8
6
 62
         2
100
AcDbMText
 10
148.3000665
 20
49.8373512669
 30
0.0
 40
3.5
 41
0.0
 71
         1
 72
         1
  1
IPS 6501a502
  7
SLDTEXTSTYLE4
  0
MTEXT
  5
432
100
AcDbEntity
  8
6
 62
         2
100
AcDbMText
 10
148.3000665
 20
34.2417472669
 30
0.0
 40
3.5
 41
0.0
 71
         1
 72
         1
  1
IPS 6501g252
  7
SLDTEXTSTYLE4
  0
MTEXT
  5
433
100
AcDbEntity
  8
6
 62
         2
100
AcDbMText
 10
148.3000665
 20
26.0419982669
 30
0.0
 40
3.5
 41
0.0
 71
         1
 72
         1
  1
IPS 6501w302
  7
SLDTEXTSTYLE4
  0
MTEXT
  5
434
100
AcDbEntity
  8
6
 62
         2
100
AcDbMText
 10
191.6811915
 20
49.8373512669
 30
0.0
 40
3.5
 41
0.0
 71
         1
 72
         1
  1
001061
  7
SLDTEXTSTYLE4
  0
MTEXT
  5
435
100
AcDbEntity
  8
6
 62
         2
100
AcDbMText
 10
191.8417755
 20
41.6376022669
 30
0.0
 40
3.5
 41
0.0
 71
         1
 72
         1
  1
001062
  7
SLDTEXTSTYLE4
  0
MTEXT
  5
436
100
AcDbEntity
  8
6
 62
         2
100
AcDbMText
 10
191.6811915
 20
33.9201892669
 30
0.0
 40
3.5
 41
0.0
 71
         1
 72
         1
  1
001066
  7
SLDTEXTSTYLE4
  0
MTEXT
  5
437
100
AcDbEntity
  8
6
 62
         2
100
AcDbMText
 10
191.8417755
 20
26.3635562669
 30
0.0
 40
3.5
 41
0.0
 71
         1
 72
         1
  1
001067
  7
SLDTEXTSTYLE4
  0
MTEXT
  5
438
100
AcDbEntity
  8
6
 62
         2
100
AcDbMText
 10
190.4428215
 20
18.9677032669
 30
0.0
 40
3.5
 41
0.0
 71
         1
 72
         1
  1
Art.-Nr.
  7
SLDTEXTSTYLE4
  0
MTEXT
  5
439
100
AcDbEntity
  8
6
 62
         7
100
AcDbMText
 10
213.4409770833
 20
173.635743
 30
0.0
 40
2.5
 41
0.0
 71
         1
 72
         1
  1
h5
  7
SLDTEXTSTYLE4
 11
0.0
 21
1.0
 31
0.0
  0
MTEXT
  5
43A
100
AcDbEntity
  8
6
 62
         7
100
AcDbMText
 10
222.8844130833
 20
188.006196
 30
0.0
 40
2.5
 41
0.0
 71
         1
 72
         1
  1
g9
  7
SLDTEXTSTYLE4
 11
0.0
 21
1.0
 31
0.0
  0
MTEXT
  5
43B
100
AcDbEntity
  8
6
 62
         2
100
AcDbMText
 10
91.7587095
 20
108.3449692669
 30
0.0
 40
3.5
 41
0.0
 71
         1
 72
         1
  1
ca.
  7
SLDTEXTSTYLE4
  0
MTEXT
  5
43C
100
AcDbEntity
  8
6
 62
         2
100
AcDbMText
 10
289.1091205
 20
88.5970442669
 30
0.0
 40
3.5
 41
0.0
 71
         1
 72
         1
  1
Befestigungsklammer Z4-1
  7
SLDTEXTSTYLE4
  0
MTEXT
  5
43D
100
AcDbEntity
  8
6
 62
         2
100
AcDbMText
 10
219.9631602331
 20
98.625059
 30
0.0
 40
3.5
 41
0.0
 71
         1
 72
         1
  1
Ø95
  7
SLDTEXTSTYLE4
 11
0.0
 21
1.0
 31
0.0
  0
MTEXT
  5
43E
100
AcDbEntity
  8
6
 62
         7
100
AcDbMText
 10
218.7745998267
 20
104.7733242432
 30
0.0
 40
2.5
 41
0.0
 71
         1
 72
         1
  1
+0.5
  7
SLDTEXTSTYLE4
 11
0.0
 21
1.0
 31
0.0
  0
MTEXT
  5
43F
100
AcDbEntity
  8
6
 62
         2
100
AcDbMText
 10
228.0642342331
 20
95.672169
 30
0.0
 40
3.5
 41
0.0
 71
         1
 72
         1
  1
(4x90%%d)
  7
SLDTEXTSTYLE4
 11
0.0
 21
1.0
 31
0.0
  0
MTEXT
  5
440
100
AcDbEntity
  8
6
 62
         7
100
AcDbMText
 10
305.3047620833
 20
169.220979
 30
0.0
 40
2.5
 41
0.0
 71
         1
 72
         1
  1
G
  7
SLDTEXTSTYLE4
 11
0.0
 21
1.0
 31
0.0
  0
MTEXT
  5
441
100
AcDbEntity
  8
6
 62
         7
100
AcDbMText
 10
298.7530650833
 20
163.335939
 30
0.0
 40
2.5
 41
0.0
 71
         1
 72
         1
  1
C
  7
SLDTEXTSTYLE4
 11
0.0
 21
1.0
 31
0.0
  0
MTEXT
  5
442
100
AcDbEntity
  8
6
 62
         7
100
AcDbMText
 10
298.7530960833
 20
171.811692
 30
0.0
 40
2.5
 41
0.0
 71
         1
 72
         1
  1
D
  7
SLDTEXTSTYLE4
 11
0.0
 21
1.0
 31
0.0
  0
MTEXT
  5
443
100
AcDbEntity
  8
6
 62
         7
100
AcDbMText
 10
305.4821000833
 20
174.020524
 30
0.0
 40
2.5
 41
0.0
 71
         1
 72
         1
  1
E
  7
SLDTEXTSTYLE4
 11
0.0
 21
1.0
 31
0.0
  0
MTEXT
  5
444
100
AcDbEntity
  8
6
 62
         7
100
AcDbMText
 10
310.1051770833
 20
171.452149
 30
0.0
 40
2.5
 41
0.0
 71
         1
 72
         1
  1
F
  7
SLDTEXTSTYLE4
 11
0.0
 21
1.0
 31
0.0
  0
MTEXT
  5
445
100
AcDbEntity
  8
6
 62
         7
100
AcDbMText
 10
309.4373910833
 20
163.695481
 30
0.0
 40
2.5
 41
0.0
 71
         1
 72
         1
  1
A
  7
SLDTEXTSTYLE4
 11
0.0
 21
1.0
 31
0.0
  0
MTEXT
  5
446
100
AcDbEntity
  8
6
 62
         7
100
AcDbMText
 10
305.3296950833
 20
160.81891
 30
0.0
 40
2.5
 41
0.0
 71
         1
 72
         1
  1
B
  7
SLDTEXTSTYLE4
 11
0.0
 21
1.0
 31
0.0
  0
MTEXT
  5
447
100
AcDbEntity
  8
6
 62
         2
100
AcDbMText
 10
352.4811605
 20
63.4504682669
 30
0.0
 40
3.5
 41
0.0
 71
         1
 72
         1
  1
Ånderungen vorbehalten !
  7
SLDTEXTSTYLE4
  0
MTEXT
  5
448
100
AcDbEntity
  8
6
 62
         2
100
AcDbMText
 10
223.1378305
 20
63.7986092669
 30
0.0
 40
3.5
 41
0.0
 71
         1
 72
         1
  1
Achtung! Einbaumaße sind keine Fertigungsmaße
  7
SLDTEXTSTYLE4
  0
MTEXT
  5
449
100
AcDbEntity
  8
6
 62
         2
100
AcDbMText
 10
39.9736075
 20
62.9008772669
 30
0.0
 40
3.5
 41
0.0
 71
         1
 72
         1
  1
Anschlußschema
  7
SLDTEXTSTYLE4
  0
MTEXT
  5
44A
100
AcDbEntity
  8
6
 62
         2
100
AcDbMText
 10
66.5087325
 20
24.2922422669
 30
0.0
 40
3.5
 41
0.0
 71
         1
 72
         1
  1
(2)
  7
SLDTEXTSTYLE4
  0
MTEXT
  5
44B
100
AcDbEntity
  8
6
 62
         2
100
AcDbMText
 10
68.7955335
 20
17.6307152669
 30
0.0
 40
3.5
 41
0.0
 71
         1
 72
         1
  1
B
  7
SLDTEXTSTYLE4
  0
MTEXT
  5
44C
100
AcDbEntity
  8
6
 62
         2
100
AcDbMText
 10
33.7358245
 20
48.2062862669
 30
0.0
 40
3.5
 41
0.0
 71
         1
 72
         1
  1
A (1)
  7
SLDTEXTSTYLE4
  0
MTEXT
  5
44D
100
AcDbEntity
  8
6
 62
         2
100
AcDbMText
 10
94.5566475
 20
48.2062862669
 30
0.0
 40
3.5
 41
0.0
 71
         1
 72
         1
  1
(3) C
  7
SLDTEXTSTYLE4
  0
MTEXT
  5
44E
100
AcDbEntity
  8
6
 62
         2
100
AcDbMText
 10
17.9112715
 20
36.9546412669
 30
0.0
 40
3.5
 41
0.0
 71
         1
 72
         1
  1
Drehrichtung:cw
  7
SLDTEXTSTYLE4
  0
MTEXT
  5
44F
100
AcDbEntity
  8
6
 62
         2
100
AcDbMText
 10
16.5789695
 20
30.2724712669
 30
0.0
 40
3.5
 41
0.0
 71
         1
 72
         1
  1
(auf Welle gesehen)
  7
SLDTEXTSTYLE4
  0
MTEXT
  5
450
100
AcDbEntity
  8
6
 62
         2
100
AcDbMText
 10
73.0557905
 20
258.0460112669
 30
0.0
 40
3.5
 41
0.0
 71
         1
 72
         1
  1
Frei drehbarer Stecker 90%%d abgewinkelt,
  7
SLDTEXTSTYLE4
  0
MTEXT
  5
451
100
AcDbEntity
  8
6
 62
         2
100
AcDbMText
 10
72.5573275
 20
250.6554932669
 30
0.0
 40
3.5
 41
0.0
 71
         1
 72
         1
  1
mit Bajonettverschluß
  7
SLDTEXTSTYLE4
  0
MTEXT
  5
452
100
AcDbEntity
  8
1
 62
         3
100
AcDbMText
 10
260.2249975
 20
17.1619038333
 30
0.0
 40
5.0
 41
0.0
 71
         1
 72
         1
  1
Industriepotentiometer
  7
SLDTEXTSTYLE4
  0
MTEXT
  5
453
100
AcDbEntity
  8
1
 62
         3
100
AcDbMText
 10
401.2469855
 20
17.1619038333
 30
0.0
 40
5.0
 41
0.0
 71
         1
 72
         1
  1
-
  7
SLDTEXTSTYLE4
  0
MTEXT
  5
454
100
AcDbEntity
  8
1
 62
         7
100
AcDbMText
 10
353.3724475
 20
28.7209704167
 30
0.0
 40
2.5
 41
0.0
 71
         1
 72
         1
  1
Z002-2579-2
  7
SLDTEXTSTYLE4
  0
MTEXT
  5
455
100
AcDbEntity
  8
1
 62
         3
100
AcDbMText
 10
382.9349735
 20
29.8519228333
 30
0.0
 40
5.0
 41
0.0
 71
         1
 72
         1
  1
s. Tab.
  7
SLDTEXTSTYLE4
  0
MTEXT
  5
456
100
AcDbEntity
  8
1
 62
         7
100
AcDbMText
 10
223.8324845
 20
35.2809604167
 30
0.0
 40
2.5
 41
0.0
 71
         1
 72
         1
  1
-
  7
SLDTEXTSTYLE4
  0
MTEXT
  5
457
100
AcDbEntity
  8
1
 62
         7
100
AcDbMText
 10
223.8324845
 20
26.8209694167
 30
0.0
 40
2.5
 41
0.0
 71
         1
 72
         1
  1
-
  7
SLDTEXTSTYLE4
  0
MTEXT
  5
458
100
AcDbEntity
  8
1
 62
         7
100
AcDbMText
 10
223.8324845
 20
43.7409694167
 30
0.0
 40
2.5
 41
0.0
 71
         1
 72
         1
  1
-
  7
SLDTEXTSTYLE4
  0
MTEXT
  5
459
100
AcDbEntity
  8
1
 62
         7
100
AcDbMText
 10
259.3924975
 20
43.7409694167
 30
0.0
 40
2.5
 41
0.0
 71
         1
 72
         1
  1
-
  7
SLDTEXTSTYLE4
  0
MTEXT
  5
45A
100
AcDbEntity
  8
1
 62
         7
100
AcDbMText
 10
284.7925215
 20
43.7409694167
 30
0.0
 40
2.5
 41
0.0
 71
         1
 72
         1
  1
1:1
  7
SLDTEXTSTYLE4
  0
MTEXT
  5
45B
100
AcDbEntity
  8
1
 62
         7
100
AcDbMText
 10
223.6659845
 20
51.0897798169
 30
0.0
 40
2.0
 41
0.0
 71
         1
 72
         1
  1
-
  7
SLDTEXTSTYLE4
  0
MTEXT
  5
45C
100
AcDbEntity
  8
1
 62
         7
100
AcDbMText
 10
231.2859945
 20
51.0897798169
 30
0.0
 40
2.0
 41
0.0
 71
         1
 72
         1
  1
-
  7
SLDTEXTSTYLE4
  0
MTEXT
  5
45D
100
AcDbEntity
  8
1
 62
         7
100
AcDbMText
 10
246.5259855
 20
51.0897798169
 30
0.0
 40
2.0
 41
0.0
 71
         1
 72
         1
  1
-
  7
SLDTEXTSTYLE4
  0
MTEXT
  5
45E
100
AcDbEntity
  8
1
 62
         7
100
AcDbMText
 10
335.4259945
 20
51.0897798169
 30
0.0
 40
2.0
 41
0.0
 71
         1
 72
         1
  1
-
  7
SLDTEXTSTYLE4
  0
MTEXT
  5
45F
100
AcDbEntity
  8
1
 62
         7
100
AcDbMText
 10
353.2059625
 20
51.0897798169
 30
0.0
 40
2.0
 41
0.0
 71
         1
 72
         1
  1
-
  7
SLDTEXTSTYLE4
  0
MTEXT
  5
460
100
AcDbEntity
  8
1
 62
         7
100
AcDbMText
 10
367.5709835
 20
51.0897798169
 30
0.0
 40
2.0
 41
0.0
 71
         1
 72
         1
  1
-
  7
SLDTEXTSTYLE4
  0
MTEXT
  5
461
100
AcDbEntity
  8
1
 62
         7
100
AcDbMText
 10
381.9359735
 20
51.0897798169
 30
0.0
 40
2.0
 41
0.0
 71
         1
 72
         1
  1
-
  7
SLDTEXTSTYLE4
  0
MTEXT
  5
462
100
AcDbEntity
  8
1
 62
         7
100
AcDbMText
 10
396.3009635
 20
51.0897798169
 30
0.0
 40
2.0
 41
0.0
 71
         1
 72
         1
  1
-
  7
SLDTEXTSTYLE4
  0
MTEXT
  5
463
100
AcDbEntity
  8
1
 62
         7
100
AcDbMText
 10
359.2059625
 20
46.8597718169
 30
0.0
 40
2.0
 41
0.0
 71
         1
 72
         1
  1
s. Tab.
  7
SLDTEXTSTYLE4
  0
MTEXT
  5
464
100
AcDbEntity
  8
1
 62
         7
100
AcDbMText
 10
367.2059625
 20
42.6297768169
 30
0.0
 40
2.0
 41
0.0
 71
         1
 72
         1
  1
-
  7
SLDTEXTSTYLE4
  0
MTEXT
  5
465
100
AcDbEntity
  8
1
 62
         7
100
AcDbMText
 10
371.2059625
 20
38.3997728169
 30
0.0
 40
2.0
 41
0.0
 71
         1
 72
         1
  1
-
  7
SLDTEXTSTYLE4
  0
MTEXT
  5
466
100
AcDbEntity
  8
1
 62
         7
100
AcDbMText
 10
320.1860345
 20
42.6297768169
 30
0.0
 40
2.0
 41
0.0
 71
         1
 72
         1
  1
 Mck
  7
SLDTEXTSTYLE4
  0
MTEXT
  5
467
100
AcDbEntity
  8
1
 62
         7
100
AcDbMText
 10
335.4259945
 20
42.6297768169
 30
0.0
 40
2.0
 41
0.0
 71
         1
 72
         1
  1
 18.09.90
  7
SLDTEXTSTYLE4
  0
MTEXT
  5
468
100
AcDbEntity
  8
1
 62
         7
100
AcDbMText
 10
320.1860345
 20
38.3997728169
 30
0.0
 40
2.0
 41
0.0
 71
         1
 72
         1
  1
-
  7
SLDTEXTSTYLE4
  0
MTEXT
  5
469
100
AcDbEntity
  8
1
 62
         3
100
AcDbMText
 10
354.2049625
 20
17.1619038333
 30
0.0
 40
5.0
 41
0.0
 71
         1
 72
         1
  1
Z001-2331-3
  7
SLDTEXTSTYLE4
  0
MTEXT
  5
46A
100
AcDbEntity
  8
1
 62
         7
100
AcDbMText
 10
335.4259945
 20
38.3997728169
 30
0.0
 40
2.0
 41
0.0
 71
         1
 72
         1
  1
-
  7
SLDTEXTSTYLE4
  0
MTEXT
  5
46B
100
AcDbEntity
  8
1
 62
         7
100
AcDbMText
 10
335.4259945
 20
34.1697678169
 30
0.0
 40
2.0
 41
0.0
 71
         1
 72
         1
  1
-
  7
SLDTEXTSTYLE4
  0
MTEXT
  5
46C
100
AcDbEntity
  8
1
 62
         7
100
AcDbMText
 10
335.4259945
 20
29.9397718169
 30
0.0
 40
2.0
 41
0.0
 71
         1
 72
         1
  1
-
  7
SLDTEXTSTYLE4
  0
MTEXT
  5
46D
100
AcDbEntity
  8
1
 62
         7
100
AcDbMText
 10
320.1860345
 20
34.1697678169
 30
0.0
 40
2.0
 41
0.0
 71
         1
 72
         1
  1
-
  7
SLDTEXTSTYLE4
  0
MTEXT
  5
46E
100
AcDbEntity
  8
1
 62
         7
100
AcDbMText
 10
320.1860345
 20
29.9397718169
 30
0.0
 40
2.0
 41
0.0
 71
         1
 72
         1
  1
-
  7
SLDTEXTSTYLE4
  0
MTEXT
  5
46F
100
AcDbEntity
  8
1
 62
         7
100
AcDbMText
 10
320.1860345
 20
25.7097768169
 30
0.0
 40
2.0
 41
0.0
 71
         1
 72
         1
  1
Z.Nr.:Z001-2088-3
  7
SLDTEXTSTYLE4
  0
MTEXT
  5
470
100
AcDbEntity
  8
2
 62
         7
100
AcDbMText
 10
320.1027545
 20
46.7466766334
 30
0.0
 40
1.75
 41
0.0
 71
         1
 72
         1
  1
Name
  7
SLDTEXTSTYLE4
  0
MTEXT
  5
471
100
AcDbEntity
  8
2
 62
         7
100
AcDbMText
 10
335.3427135
 20
46.7466766334
 30
0.0
 40
1.75
 41
0.0
 71
         1
 72
         1
  1
Datum
  7
SLDTEXTSTYLE4
  0
MTEXT
  5
472
100
AcDbEntity
  8
2
 62
         7
100
AcDbMText
 10
309.9427505
 20
42.5166816334
 30
0.0
 40
1.75
 41
0.0
 71
         1
 72
         1
  1
Bearb.
  7
SLDTEXTSTYLE4
  0
MTEXT
  5
473
100
AcDbEntity
  8
2
 62
         7
100
AcDbMText
 10
309.9427505
 20
38.2866706334
 30
0.0
 40
1.75
 41
0.0
 71
         1
 72
         1
  1
Gepr.
  7
SLDTEXTSTYLE4
  0
MTEXT
  5
474
100
AcDbEntity
  8
2
 62
         7
100
AcDbMText
 10
309.9427505
 20
34.0566726334
 30
0.0
 40
1.75
 41
0.0
 71
         1
 72
         1
  1
Genehm.
  7
SLDTEXTSTYLE4
  0
MTEXT
  5
475
100
AcDbEntity
  8
2
 62
         7
100
AcDbMText
 10
309.9427505
 20
29.8266766334
 30
0.0
 40
1.75
 41
0.0
 71
         1
 72
         1
  1
Norm
  7
SLDTEXTSTYLE4
  0
MTEXT
  5
476
100
AcDbEntity
  8
2
 62
         7
100
AcDbMText
 10
309.9427505
 20
25.5966816334
 30
0.0
 40
1.75
 41
0.0
 71
         1
 72
         1
  1
Ers. f.
  7
SLDTEXTSTYLE4
  0
MTEXT
  5
477
100
AcDbEntity
  8
2
 62
         7
100
AcDbMText
 10
223.5827345
 20
47.4624516334
 30
0.0
 40
1.75
 41
0.0
 71
         1
 72
         1
  1
Form- u. Lagetoleranz nach
  7
SLDTEXTSTYLE4
  0
MTEXT
  5
478
100
AcDbEntity
  8
2
 62
         7
100
AcDbMText
 10
259.1427325
 20
47.4624516334
 30
0.0
 40
1.75
 41
0.0
 71
         1
 72
         1
  1
Nichttol.Maße
  7
SLDTEXTSTYLE4
  0
MTEXT
  5
479
100
AcDbEntity
  8
2
 62
         7
100
AcDbMText
 10
284.5427565
 20
47.4624516334
 30
0.0
 40
1.75
 41
0.0
 71
         1
 72
         1
  1
Maßstab
  7
SLDTEXTSTYLE4
  0
MTEXT
  5
47A
100
AcDbEntity
  8
2
 62
         7
100
AcDbMText
 10
223.5827345
 20
38.9686926334
 30
0.0
 40
1.75
 41
0.0
 71
         1
 72
         1
  1
Oberflächenangaben nach
  7
SLDTEXTSTYLE4
  0
MTEXT
  5
47B
100
AcDbEntity
  8
2
 62
         7
100
AcDbMText
 10
223.5827345
 20
30.3245946334
 30
0.0
 40
1.75
 41
0.0
 71
         1
 72
         1
  1
Werkstückkanten nach
  7
SLDTEXTSTYLE4
  0
MTEXT
  5
47C
100
AcDbEntity
  8
2
 62
         7
100
AcDbMText
 10
223.5827345
 20
21.5301756334
 30
0.0
 40
1.75
 41
0.0
 71
         1
 72
         1
  1
ISO-Methode E
  7
SLDTEXTSTYLE4
  0
MTEXT
  5
47D
100
AcDbEntity
  8
2
 62
         7
100
AcDbMText
 10
259.1427325
 20
21.9060076334
 30
0.0
 40
1.75
 41
0.0
 71
         1
 72
         1
  1
Benennung
  7
SLDTEXTSTYLE4
  0
MTEXT
  5
47E
100
AcDbEntity
  8
2
 62
         7
100
AcDbMText
 10
353.1227125
 20
38.2866706334
 30
0.0
 40
1.75
 41
0.0
 71
         1
 72
         1
  1
Werkstoff Nr.
  7
SLDTEXTSTYLE4
  0
MTEXT
  5
47F
100
AcDbEntity
  8
2
 62
         7
100
AcDbMText
 10
353.1227125
 20
42.5166816334
 30
0.0
 40
1.75
 41
0.0
 71
         1
 72
         1
  1
Werkstoff
  7
SLDTEXTSTYLE4
  0
MTEXT
  5
480
100
AcDbEntity
  8
2
 62
         7
100
AcDbMText
 10
353.1227125
 20
34.5558336334
 30
0.0
 40
1.75
 41
0.0
 71
         1
 72
         1
  1
Zeichnungsmaßbild
  7
SLDTEXTSTYLE4
  0
MTEXT
  5
481
100
AcDbEntity
  8
2
 62
         7
100
AcDbMText
 10
381.8527235
 20
34.3830356334
 30
0.0
 40
1.75
 41
0.0
 71
         1
 72
         1
  1
Art.-Nr.
  7
SLDTEXTSTYLE4
  0
MTEXT
  5
482
100
AcDbEntity
  8
2
 62
         7
100
AcDbMText
 10
400.1647355
 20
21.8265776334
 30
0.0
 40
1.75
 41
0.0
 71
         1
 72
         1
  1
Blatt
  7
SLDTEXTSTYLE4
  0
MTEXT
  5
483
100
AcDbEntity
  8
2
 62
         7
100
AcDbMText
 10
353.1227125
 20
21.9993756334
 30
0.0
 40
1.75
 41
0.0
 71
         1
 72
         1
  1
Zeichnungsnr.
  7
SLDTEXTSTYLE4
  0
MTEXT
  5
484
100
AcDbEntity
  8
2
 62
         7
100
AcDbMText
 10
223.8130035
 20
55.2066836334
 30
0.0
 40
1.75
 41
0.0
 71
         1
 72
         1
  1
Index
  7
SLDTEXTSTYLE4
  0
MTEXT
  5
485
100
AcDbEntity
  8
2
 62
         7
100
AcDbMText
 10
231.6357515
 20
55.2066836334
 30
0.0
 40
1.75
 41
0.0
 71
         1
 72
         1
  1
Änd.List.Nr.
  7
SLDTEXTSTYLE4
  0
MTEXT
  5
486
100
AcDbEntity
  8
2
 62
         7
100
AcDbMText
 10
247.1662205
 20
55.2066836334
 30
0.0
 40
1.75
 41
0.0
 71
         1
 72
         1
  1
Änderung
  7
SLDTEXTSTYLE4
  0
MTEXT
  5
487
100
AcDbEntity
  8
2
 62
         7
100
AcDbMText
 10
335.5551905
 20
55.2066836334
 30
0.0
 40
1.75
 41
0.0
 71
         1
 72
         1
  1
Datum
  7
SLDTEXTSTYLE4
  0
MTEXT
  5
488
100
AcDbEntity
  8
2
 62
         7
100
AcDbMText
 10
353.2716335
 20
55.2066836334
 30
0.0
 40
1.75
 41
0.0
 71
         1
 72
         1
  1
Bearb.
  7
SLDTEXTSTYLE4
  0
MTEXT
  5
489
100
AcDbEntity
  8
2
 62
         7
100
AcDbMText
 10
367.8104705
 20
55.2066836334
 30
0.0
 40
1.75
 41
0.0
 71
         1
 72
         1
  1
Gepr.
  7
SLDTEXTSTYLE4
  0
MTEXT
  5
48A
100
AcDbEntity
  8
2
 62
         7
100
AcDbMText
 10
382.1907985
 20
55.2066836334
 30
0.0
 40
1.75
 41
0.0
 71
         1
 72
         1
  1
Norm
  7
SLDTEXTSTYLE4
  0
MTEXT
  5
48B
100
AcDbEntity
  8
2
 62
         7
100
AcDbMText
 10
396.5861905
 20
55.2066836334
 30
0.0
 40
1.75
 41
0.0
 71
         1
 72
         1
  1
Genehm.
  7
SLDTEXTSTYLE4
  0
MTEXT
  5
48C
100
AcDbEntity
  8
2
 62
         7
100
AcDbMText
 10
353.1227125
 20
46.7466766334
 30
0.0
 40
1.75
 41
0.0
 71
         1
 72
         1
  1
Typ
  7
SLDTEXTSTYLE4
  0
MTEXT
  5
48D
100
AcDbEntity
  8
2
 62
         7
100
AcDbMText
 10
6.8124765
 20
269.1480434167
 30
0.0
 40
2.5
 41
0.0
 71
         1
 72
         1
  1
A
  7
SLDTEXTSTYLE4
  0
MTEXT
  5
48E
100
AcDbEntity
  8
2
 62
         7
100
AcDbMText
 10
411.8124845
 20
269.1480434167
 30
0.0
 40
2.5
 41
0.0
 71
         1
 72
         1
  1
A
  7
SLDTEXTSTYLE4
  0
MTEXT
  5
48F
100
AcDbEntity
  8
2
 62
         7
100
AcDbMText
 10
6.8124765
 20
223.8291344167
 30
0.0
 40
2.5
 41
0.0
 71
         1
 72
         1
  1
B
  7
SLDTEXTSTYLE4
  0
MTEXT
  5
490
100
AcDbEntity
  8
2
 62
         7
100
AcDbMText
 10
411.8124845
 20
223.3848294167
 30
0.0
 40
2.5
 41
0.0
 71
         1
 72
         1
  1
B
  7
SLDTEXTSTYLE4
  0
MTEXT
  5
491
100
AcDbEntity
  8
2
 62
         7
100
AcDbMText
 10
6.8124765
 20
173.1786064167
 30
0.0
 40
2.5
 41
0.0
 71
         1
 72
         1
  1
C
  7
SLDTEXTSTYLE4
  0
MTEXT
  5
492
100
AcDbEntity
  8
2
 62
         7
100
AcDbMText
 10
411.8124845
 20
173.1786064167
 30
0.0
 40
2.5
 41
0.0
 71
         1
 72
         1
  1
C
  7
SLDTEXTSTYLE4
  0
MTEXT
  5
493
100
AcDbEntity
  8
2
 62
         7
100
AcDbMText
 10
6.8124765
 20
123.8610254167
 30
0.0
 40
2.5
 41
0.0
 71
         1
 72
         1
  1
D
  7
SLDTEXTSTYLE4
  0
MTEXT
  5
494
100
AcDbEntity
  8
2
 62
         7
100
AcDbMText
 10
411.8124845
 20
124.3053154167
 30
0.0
 40
2.5
 41
0.0
 71
         1
 72
         1
  1
D
  7
SLDTEXTSTYLE4
  0
MTEXT
  5
495
100
AcDbEntity
  8
2
 62
         7
100
AcDbMText
 10
6.7494545
 20
74.0991084167
 30
0.0
 40
2.5
 41
0.0
 71
         1
 72
         1
  1
E
  7
SLDTEXTSTYLE4
  0
MTEXT
  5
496
100
AcDbEntity
  8
2
 62
         7
100
AcDbMText
 10
411.9535975
 20
73.6548024167
 30
0.0
 40
2.5
 41
0.0
 71
         1
 72
         1
  1
E
  7
SLDTEXTSTYLE4
  0
MTEXT
  5
497
100
AcDbEntity
  8
2
 62
         7
100
AcDbMText
 10
6.8124765
 20
28.7802244167
 30
0.0
 40
2.5
 41
0.0
 71
         1
 72
         1
  1
F
  7
SLDTEXTSTYLE4
  0
MTEXT
  5
498
100
AcDbEntity
  8
2
 62
         7
100
AcDbMText
 10
411.8124845
 20
27.0030024167
 30
0.0
 40
2.5
 41
0.0
 71
         1
 72
         1
  1
F
  7
SLDTEXTSTYLE4
  0
MTEXT
  5
499
100
AcDbEntity
  8
2
 62
         7
100
AcDbMText
 10
34.7405275
 20
290.6309534167
 30
0.0
 40
2.5
 41
0.0
 71
         1
 72
         1
  1
1
  7
SLDTEXTSTYLE4
  0
MTEXT
  5
49A
100
AcDbEntity
  8
2
 62
         7
100
AcDbMText
 10
35.6291385
 20
8.6309534167
 30
0.0
 40
2.5
 41
0.0
 71
         1
 72
         1
  1
1
  7
SLDTEXTSTYLE4
  0
MTEXT
  5
49B
100
AcDbEntity
  8
2
 62
         7
100
AcDbMText
 10
84.0581355
 20
8.6309534167
 30
0.0
 40
2.5
 41
0.0
 71
         1
 72
         1
  1
2
  7
SLDTEXTSTYLE4
  0
MTEXT
  5
49C
100
AcDbEntity
  8
2
 62
         7
100
AcDbMText
 10
84.9467465
 20
290.6309534167
 30
0.0
 40
2.5
 41
0.0
 71
         1
 72
         1
  1
2
  7
SLDTEXTSTYLE4
  0
MTEXT
  5
49D
100
AcDbEntity
  8
2
 62
         7
100
AcDbMText
 10
133.8200525
 20
290.6309534167
 30
0.0
 40
2.5
 41
0.0
 71
         1
 72
         1
  1
3
  7
SLDTEXTSTYLE4
  0
MTEXT
  5
49E
100
AcDbEntity
  8
2
 62
         7
100
AcDbMText
 10
134.7086635
 20
8.6309534167
 30
0.0
 40
2.5
 41
0.0
 71
         1
 72
         1
  1
3
  7
SLDTEXTSTYLE4
  0
MTEXT
  5
49F
100
AcDbEntity
  8
2
 62
         7
100
AcDbMText
 10
184.4705805
 20
290.6309534167
 30
0.0
 40
2.5
 41
0.0
 71
         1
 72
         1
  1
4
  7
SLDTEXTSTYLE4
  0
MTEXT
  5
4A0
100
AcDbEntity
  8
2
 62
         7
100
AcDbMText
 10
184.4705805
 20
8.6309534167
 30
0.0
 40
2.5
 41
0.0
 71
         1
 72
         1
  1
4
  7
SLDTEXTSTYLE4
  0
MTEXT
  5
4A1
100
AcDbEntity
  8
2
 62
         7
100
AcDbMText
 10
235.1210625
 20
8.6309534167
 30
0.0
 40
2.5
 41
0.0
 71
         1
 72
         1
  1
5
  7
SLDTEXTSTYLE4
  0
MTEXT
  5
4A2
100
AcDbEntity
  8
2
 62
         7
100
AcDbMText
 10
234.6767575
 20
290.6309534167
 30
0.0
 40
2.5
 41
0.0
 71
         1
 72
         1
  1
5
  7
SLDTEXTSTYLE4
  0
MTEXT
  5
4A3
100
AcDbEntity
  8
2
 62
         7
100
AcDbMText
 10
284.4386745
 20
290.6309534167
 30
0.0
 40
2.5
 41
0.0
 71
         1
 72
         1
  1
6
  7
SLDTEXTSTYLE4
  0
MTEXT
  5
4A4
100
AcDbEntity
  8
2
 62
         7
100
AcDbMText
 10
283.9943695
 20
8.6309534167
 30
0.0
 40
2.5
 41
0.0
 71
         1
 72
         1
  1
6
  7
SLDTEXTSTYLE4
  0
MTEXT
  5
4A5
100
AcDbEntity
  8
2
 62
         7
100
AcDbMText
 10
334.6448815
 20
8.6309534167
 30
0.0
 40
2.5
 41
0.0
 71
         1
 72
         1
  1
7
  7
SLDTEXTSTYLE4
  0
MTEXT
  5
4A6
100
AcDbEntity
  8
2
 62
         7
100
AcDbMText
 10
335.5334925
 20
290.6309534167
 30
0.0
 40
2.5
 41
0.0
 71
         1
 72
         1
  1
7
  7
SLDTEXTSTYLE4
  0
MTEXT
  5
4A7
100
AcDbEntity
  8
2
 62
         7
100
AcDbMText
 10
385.7397615
 20
290.6309534167
 30
0.0
 40
2.5
 41
0.0
 71
         1
 72
         1
  1
8
  7
SLDTEXTSTYLE4
  0
MTEXT
  5
4A8
100
AcDbEntity
  8
2
 62
         7
100
AcDbMText
 10
386.1840665
 20
8.6309534167
 30
0.0
 40
2.5
 41
0.0
 71
         1
 72
         1
  1
8
  7
SLDTEXTSTYLE4
  0
INSERT
  5
4A9
100
AcDbEntity
  8
0
100
AcDbBlockReference
  2
MEDCLUMP_SET_1_
 10
4.9999845
 20
5.000001
 30
0.0
  0
INSERT
  5
4AA
100
AcDbEntity
  8
0
100
AcDbBlockReference
  2
MEDCLUMP_DMS_29_
 10
4.9999845
 20
5.000001
 30
0.0
  0
INSERT
  5
4AB
100
AcDbEntity
  8
0
100
AcDbBlockReference
  2
MEDCLUMP_CRH_43_
 10
4.9999845
 20
5.000001
 30
0.0
  0
INSERT
  5
4AC
100
AcDbEntity
  8
1
100
AcDbBlockReference
  2
MEDFUNV_6
 10
225.3438715
 20
120.687058
 30
0.0
 50
-90.0
  0
INSERT
  5
4AD
100
AcDbEntity
  8
0
100
AcDbBlockReference
  2
MEDCLUMP_DMS_92_
 10
4.9999845
 20
5.000001
 30
0.0
  0
INSERT
  5
4AE
100
AcDbEntity
  8
0
100
AcDbBlockReference
  2
MEDCLUMP_DMS_112_
 10
4.9999845
 20
5.000001
 30
0.0
  0
INSERT
  5
4AF
100
AcDbEntity
  8
0
100
AcDbBlockReference
  2
MEDCLUMP_DMS_118_
 10
4.9999845
 20
5.000001
 30
0.0
  0
INSERT
  5
4B0
100
AcDbEntity
  8
0
100
AcDbBlockReference
  2
MEDCLUMP_SET_138_
 10
4.9999845
 20
5.000001
 30
0.0
  0
INSERT
  5
4B1
100
AcDbEntity
  8
0
100
AcDbBlockReference
  2
MEDCLUMP_DMS_170_
 10
4.9999845
 20
5.000001
 30
0.0
  0
INSERT
  5
4B2
100
AcDbEntity
  8
0
100
AcDbBlockReference
  2
MEDCLUMP_SET_185_
 10
4.9999845
 20
5.000001
 30
0.0
  0
INSERT
  5
4B3
100
AcDbEntity
  8
0
100
AcDbBlockReference
  2
MEDCLUMP_DMS_195_
 10
4.9999845
 20
5.000001
 30
0.0
  0
INSERT
  5
4B4
100
AcDbEntity
  8
1
100
AcDbBlockReference
  2
MEDFUNV_6
 10
69.8337325
 20
43.45823
 30
0.0
 50
-90.0
  0
INSERT
  5
4B5
100
AcDbEntity
  8
1
100
AcDbBlockReference
  2
MEDFUNV_6
 10
77.8578415
 20
34.793241
 30
0.0
 50
180.0
  0
INSERT
  5
4B6
100
AcDbEntity
  8
0
100
AcDbBlockReference
  2
MEDCLUMP_CRH_235_
 10
4.9999845
 20
5.000001
 30
0.0
  0
INSERT
  5
4B7
100
AcDbEntity
  8
0
100
AcDbBlockReference
  2
MEDCLUMP_CRH_248_
 10
4.9999845
 20
5.000001
 30
0.0
  0
INSERT
  5
4B8
100
AcDbEntity
  8
0
100
AcDbBlockReference
  2
MEDCLUMP_SET_261_
 10
4.9999845
 20
5.000001
 30
0.0
  0
INSERT
  5
4B9
100
AcDbEntity
  8
0
100
AcDbBlockReference
  2
MEDCLUMP_CRH_277_
 10
4.9999845
 20
5.000001
 30
0.0
  0
INSERT
  5
4BA
100
AcDbEntity
  8
0
100
AcDbBlockReference
  2
MEDCLUMP_CRH_285_
 10
4.9999845
 20
5.000001
 30
0.0
  0
INSERT
  5
4BB
100
AcDbEntity
  8
0
100
AcDbBlockReference
  2
MEDCLUMP_SET_299_
 10
4.9999845
 20
5.000001
 30
0.0
  0
INSERT
  5
4BC
100
AcDbEntity
  8
0
100
AcDbBlockReference
  2
MEDCLUMP_SET_308_
 10
4.9999845
 20
5.000001
 30
0.0
  0
INSERT
  5
4BD
100
AcDbEntity
  8
0
100
AcDbBlockReference
  2
MEDCLUMP_CRH_346_
 10
4.9999845
 20
5.000001
 30
0.0
  0
INSERT
  5
4BE
100
AcDbEntity
  8
0
100
AcDbBlockReference
  2
MEDCLUMP_CRH_364_
 10
4.9999845
 20
5.000001
 30
0.0
  0
INSERT
  5
4BF
100
AcDbEntity
  8
0
100
AcDbBlockReference
  2
MEDCLUMP_SET_379_
 10
4.9999845
 20
5.000001
 30
0.0
  0
ENDSEC
  0
SECTION
  2
OBJECTS
  0
DICTIONARY
  5
19
100
AcDbDictionary
  3
ACAD_GROUP
350
1A
  3
ACAD_MLINESTYLE
350
1B
  0
DICTIONARY
  5
1A
102
{ACAD_REACTORS
330
19
102
}
100
AcDbDictionary
  0
DICTIONARY
  5
1B
102
{ACAD_REACTORS
330
19
102
}
100
AcDbDictionary
  3
STANDARD
350
1C
  0
MLINESTYLE
  5
1C
102
{ACAD_REACTORS
330
1B
102
}
100
AcDbMlineStyle
  2
STANDARD
 70
         0
  3

 62
         0
 51
90.0
 52
90.0
 71
         2
 49
0.5
 62
       256
  6
BYLAYER
 49
-0.5
 62
       256
  6
BYLAYER
  0
ENDSEC
  0
EOF
